アットウィキロゴ
1
①④⑤① |①---|
④⑥③⑤ |--②③|
⑥②□③ |④---|
②□□□ |--⑤⑥|

2
□□□□ |①-②-|
⑤□□□ |③-④-|
□□□⑤ |⑤---|
③④②① |----|

3
①⑤④① |①---|
⑤③⑥④ |--②③|
③□②⑥ |④---|
□□□② |--⑤⑥|

4
□□□□ |①-②-|
□□□⑤ |③-④-|
⑤□□□ |⑤---|
①②④③ |----|

5
①□③② |①-②③|
⑩□⑥⑤ |④-⑤⑥|
⑦□⑨⑧ |⑦-⑧⑨|
④□⑫⑪ |⑩-⑪⑫|

6
①□③□ |①-②-|
□②⑤④ |③-④-|
□⑤□□ |⑤---|
□□□□ |----|

7
②③□① |①-②③|
⑤⑥□⑩ |④-⑤⑥|
⑧⑨□⑦ |⑦-⑧⑨|
⑪⑫□④ |⑩-⑪⑫|

8
③④②① |①-②-|
⑤――< |③-④-|
――⑤ |⑤---|
□□□□ |----|

9
□②□① |----|
①□③□ |----|
④□⑤① |①-②-③-|
□⑥□□ |④-⑤-⑥-|

10
□□□□ |①---|
□□□∨ |----|
□□□| |②---|
□□□① |③-④-|

③④□□
□□□□
□□□□
□□□②

11
□□①□ |①---|
②③④□ |②-③-|
□⑤⑥□ |④---|
□□□□ |⑤-⑥-|

12
□□□□ |①---|
∨□□□ |----|
|□□① |②---|
①□□□ |③-④-|

□□④③
□□□□
□□□□
②□□□

13
□①□□ |①---|
□④③② |②-③-|
□⑥⑤□ |④---|
□□□□ |⑤-⑥-|

14
□□□□ |①---|
□□□∨ |----|
①□□| |----|
□□□① |②-③-|

□□□□
□②□□
□□③□
□□□②

15
□⑤③□ |①---|
□□□② |--②-|
□④□□ |③-④-|
③①⑥⑤ |⑤-⑥-|

16
①⑧⑧□ |①②③-|
⑤□②④ |④-⑤⑥|
③□⑥④ |⑦---|
⑦□□□ |⑧---|

17
□□□① |①②③-|
④②□⑤ |④-⑤⑥|
④⑥□③ |⑦---|
□⑧⑧⑦ |⑧---|

18
①⑧⑧□ |①②③-|
⑤□②④ |④-⑤⑥|
③□⑥④ |⑦---|
⑦□□□ |⑧---|

19
□□□① |①②③-|
④②□⑤ |④-⑤⑥|
④⑥□③ |⑦---|
□⑧⑧⑦ |⑧---|

20
①④④⑤ |①②③-|
□⑥②□ |④-⑤⑥|
③□□⑦ |⑦---|
□⑧⑧□ |⑧---|

21
□④④□ |①②③-|
①⑧⑧⑤ |④-⑤⑥|
□⑥②□ |⑦---|
③□□⑦ |⑧---|

22
①□□□ |①---|
|□□□ |②---|
∧□□□ |③---|
□□□□ |④---|

②>―②
□□□□
□□□□
□□□□

□□□③
□□□□
□□□□
③―<□

□□□□
□□□∨
□□□|
④□□④

23
⑧□□⑦ |①②③-|
①⑩⑨④ |④⑤⑥-|
⑫②⑤⑪ |⑦-⑧-⑨-|
□⑥③① |⑩-⑪-⑫-|

24
□□⑥□ |①---|
□⑦□⑤ |②-③-|
□□④□ |④-⑤-|
②③①① |⑥-⑦-|

25
①□□□ |①---|
|□□□ |②---|
∧□□□ |--③-|
□□□□ |④-⑤-|

②□□□
□□□□
③④⑤□
――②

26
□□③② |①---|
①④□□ |②-③-|
⑤□⑦① |④-⑤-|
□⑥□① |⑥-⑦-|

27
□□□□ |①---|
□□□∨ |②---|
□□□| |③---|
□□□① |④---|

□□②□
∨□□□
|□□□
③□□②

□④□□
□□□□
□□□□
④□□□

28
①□□① |①---|
④①①□ |--②③|
④⑥③□ |④---|
□②⑤□ |--⑤⑥|

29
⑦②⑥□ |①---|
④⑤③① |--②③|
⑨□⑧① |④-⑤-|
④⑤□□ |⑥⑦⑧⑨|

30
□③□∨ |①---|
②⑥④| |--②③|
⑤□□| |④---|
□□□① |--⑤⑥|

31
□④②⑤ |①-②-|
⑦□⑥□ |③-④-|
□③①□ |⑤-⑥-|
⑦□□① |⑦---|

32
④⑤⑥⑦ |①②③-|
□⑩⑪□ |④⑤⑥-|
□⑫⑨□ |--⑦⑧|
⑧③②① |⑨⑩⑪⑫|

33
⑥□□⑪ |①②③-|
⑤⑧⑨① |④⑤⑥-|
④⑩⑦② |--⑦⑧|
⑫□□③ |⑨⑩⑪⑫|

34
④⑤⑥□ |①②③-|
□□□□ |④⑤⑥-|
□□□□ |⑦-⑧-⑨-|
□③②① |⑩-⑪-⑫-|

□□□□
⑧□□⑦
□⑩⑨□
⑫□□⑪

35
①□□□ |----|
③□③□ |①---|
□□□② |②---|
③□③□ |③---|

36
□①⑥② |①-②③|
□③□□ |④⑤⑥⑦|
⑤□④□ |⑧-⑨⑩|
□⑦□□ |⑪⑫⑬⑭|

⑨⑬□□
□□⑩□
□⑪□⑫
□□⑭⑧

37
⑨⑬⑥② |①-②③|
□③⑩□ |④⑤⑥⑦|
⑤⑪④⑫ |⑧-⑨⑩|
①⑦⑭⑧ |⑪⑫⑬⑭|

38
□□□□ |①---|
∨□□□ |②-③-|
|□□□ |④---|
①□□□ |⑤-⑥-|

□□□③
□②□∨
□□②|
②□□④

⑥□□□
□□⑤□
□⑤□□
□□□⑤

39
⑨□②□ |①-②③|
□③⑧⑥ |④⑤⑥-|
①⑨④⑥ |⑦-⑧-|
⑦⑤□⑧ |⑨---|

40
□①⑥② |①-②③|
□③□□ |④⑤⑥⑦|
⑤□④□ |⑧-⑨⑩|
□⑦□□ |⑪⑫⑬⑭|

⑨⑬□□
□□⑩□
□⑪□⑫
□□⑭⑧

41
⑨⑬⑥② |①-②③|
□③⑩□ |④⑤⑥⑦|
⑤⑪④⑫ |⑧-⑨⑩|
①⑦⑭⑧ |⑪⑫⑬⑭|

42
□□⑥⑤ |①-②③|
②③⑫⑪ |④-⑤⑥|
⑧⑨④□ |⑦-⑧⑨|
①⑦□⑩ |⑩-⑪⑫|

43
□②③□ |①---|
④□□④ |②---|
□□□□ |③---|
①③②□ |④---|

44
①⑥⑧③ |①-②-|
⑥□□⑧ |③-④-|
④②④② |⑤-⑥-|
□⑦□⑤ |⑦-⑧-|

45
②⑥⑧⑦ |①-②-|
□③④⑧ |③-④-|
□②⑥④ |⑤-⑥-|
⑤□①□ |⑦-⑧-|

46
①□□□ |①---|
|□□□ |②-③-|
∧□□□ |④---|
□□□□ |⑤-⑥-|

②□□□
□□③∨
□②□|
□□②④

□⑥□□
□□□□
□□⑤□
□⑤□⑤

47
∨□□① |①---|
|□□| |②---|
|□□| |③---|
①□□∧ |④---|

□□□②
□③③□
④□□④
②□□□

48
⑫⑩⑩⑪ |①②③④--|
⑥⑦⑧⑨ |⑤--⑥⑦⑧|
⑭⑤⑤⑬ |⑨-⑩-|
④③②① |⑪⑫⑬⑭|

49
④□□④ |①-②-|
□③□□ |③---|
□□③□ |----|
②②①① |④---|

50
□①③□ |①②--|
□□□□ |③④--|
□□□□ |⑤-⑥⑦|
④>⑤② |-⑧⑨-|

□□□□
□□□□
⑦□⑥
□□⑥□

□□□□
⑧□⑨<
□⑧□□
□□□□

51
□②<① |①②-③|
□□①□ |④⑤-⑥|
□□□□ |⑦-⑧⑨|
□□□□ |⑩⑪⑫⑬|

③③□□
⑪⑬⑫⑩
⑦⑨④□
□⑥⑧⑤

52
□③①□ |①②--|
□□□□ |③④--|
⑤――< |⑤--⑥|
②□□④ |--⑦-|

□□□□
――⑥
⑥□□□
□□□□

⑦――<
□□□⑦
□□□□
□□□□

53
①□□⑦ |--①②|
⑧④③⑧ |③④⑤⑥|
⑧②①⑧ |⑦---|
□⑥⑤□ |⑧---|

54
□③①□ |①②--|
□□□□ |③④--|
□□□□ |⑤-⑥⑦|
②⑤<④ |-⑧⑨-|

□□□□
□□□□
⑥□⑦<
□⑥□□

□□□□
⑨□⑧
□□⑧□
□□□□

55
①>②□ |①②-③|
□①□□ |④⑤-⑥|
□□□□ |⑦-⑧⑨|
□□□□ |⑩⑪⑫⑬|

□□③③
⑩⑫⑬⑪
□④⑨⑦
⑤⑧⑥□

56
□①③□ |①②--|
□□□□ |③④--|
――⑤ |⑤--⑥|
④□□② |--⑦-|

□□□□
⑥――<
□□□⑥
□□□□

――⑦
⑦□□□
□□□□
□□□□

57
⑦□⑨① |--①②|
□⑧□⑩ |③④⑤⑥|
□①②□ |⑦-⑧-|
③⑤⑥④ |⑨-⑩-|

58
□□□□ |①---|
□□□□ |②-③-|
①―<□ |④---|
□□□□ |⑤-⑥-|

□>―④
□□②□
②□□□
□③□□

□□□⑤
□⑤□□
□□□□
□□⑥□

59
③④□□ |①-②-|
①□□③ |③-④-|
□□②① |⑤---|
□□□□ |⑥-⑦-|

□□⑤□
□□|□
□□∧□
□□□□

□□⑥□
□⑥□□
⑦□□□
□□□□

60
□□□□ |①---|
□□□□ |②-③-|
□□□□ |④---|
□>―① |⑤-⑥-|

④―<③
□□□□
□②□□
□□□②

⑤□□□
□□⑤□
□□□□
⑥□□□

61
□>―⑤ |①-②-|
③□□① |③-④-|
①□□③ |⑤---|
□④②□ |⑥-⑦⑧|

⑥□□⑥
□□□□
⑦⑧□□
□□□□

62
□□□□ |①---|
□□□□ |②-③④|
□□□□ |⑤---|
□□①< |⑥-⑦-|

□□②□
□□□②
□□④③
⑤②□

□⑥□□
⑥□□□
⑦□□□
□⑥□□

63
②□□① |①---|
□①②□ |②---|
□④④□ |③---|
③□□③ |④---|

64
□②①□ |①-②-|
④□②① |----|
③④□② |③-④-|
□③④□ |----|

65
③④②① |①-②-|
④①③② |----|
□③①□ |③-④-|
②□□④ |----|

66
⑧□⑦① |①-②-|
□⑥□④ |③-④-|
⑤□③□ |⑤-⑥-|
①②□□ |⑦-⑧-|

67
□①□⑤ |①-②-|
④⑦②⑤ |③-④-|
⑥□⑦③ |⑤-⑥-|
⑥□□□ |⑦---|

68
④⑤⑥⑦ |①②③-|
□⑩⑪□ |④⑤⑥-|
□⑫⑨□ |--⑦⑧|
⑧③②① |⑨⑩⑪⑫|

69
⑥□□⑪ |①②③-|
⑤⑧⑨① |④⑤⑥-|
④⑩⑦② |--⑦⑧|
⑫□□③ |⑨⑩⑪⑫|

70
④⑤⑥□ |①②③-|
□□□□ |④⑤⑥-|
□□□□ |⑦-⑧-⑨-|
□③②① |⑩-⑪-⑫-|

□□□□
⑧□□⑦
□⑩⑨□
⑫□□⑪

71
②□□① |----|
□□□□ |①---|
□□□□ |②---|
□③③□ |③---|

72
□□□□ |①---|
①―<□ |----|
□□□□ |----|
□□□□ |②---|

□□□□
②□□□
□□□□
□□②□

73
□□□□ |①---|
□□□□ |----|
□>―① |----|
□□□□ |②---|

□②□□
□□□□
□□□②
□□□□

74
□□□□ |①---|
□□□□ |②-③-|
∨□□□ |④---|
①□□□ |⑤-⑥-|

□□□④
□□②∧
□③□□
②□□□

□□□⑤
□⑤□□
□□⑥□
□□□□

75
①③②⑪ |①-②③|
⑤□⑪④ |④⑤⑥⑦|
⑦⑩□⑥ |⑧⑨⑩-|
□⑩⑨⑧ |⑪---|

76
①□①□ |①-②-|
□①□② |----|
□□②□ |----|
□□□③ |③---|

77
□④③□ |①-②-|
②□□③ |----|
①□□④ |③-④-|
□①②□ |----|

78
⑤□□⑩ |①②③④|
□⑤⑩□ |⑤---|
③⑨④⑧ |⑥⑦⑧⑨|
①⑦②⑥ |⑩---|

79
□①□□ |①②③④|
□⑤□④ |⑤---|
③□⑤⑥ |⑥---|
⑦□②□ |⑦---|

80
⑧⑪⑦⑨ |①②③④|
⑫⑥⑩⑤ |⑤⑥⑦⑧|
④⑮③⑬ |⑨⑩⑪⑫|
⑯②⑭① |⑬⑭⑮⑯|

81
⑧⑪⑦⑨ |①②③④|
⑫⑥⑩⑤ |⑤⑥⑦⑧|
④⑮③⑬ |⑨⑩⑪⑫|
⑯②⑭① |⑬⑭⑮⑯|

82
□□∨□ |①---|
□□|□ |②-③-|
□□①□ |④---|
□□□① |⑤-⑥-|

③□□□
□④―<
④□②□
□②□□

□□□⑤
□⑤□□
□□□□
□□⑥□

83
□□□□ |①---|
①――< |②---|
――① |③---|
□□□□ |④---|

□③③□
②□□□
□□□②
□④④□

84
□⑦□⑧ |①②③④|
⑤□⑥□ |⑤⑥⑦⑧|
□③□④ |⑨⑩⑪⑫|
①□□② |⑬⑭⑮⑯|

⑨□⑪□
□⑩□⑫
⑬□⑮□
□⑭□⑯

85
□③□□ |①---|
③④②□ |②---|
□①④② |③---|
①□□□ |④---|

86
①⑪③④ |①-②③|
⑩⑧⑥⑦ |④-⑤⑥|
⑦⑤⑨⑩ |⑦-⑧⑨|
④②⑫① |⑩-⑪⑫|

87
①□③④ |①-②③|
⑪⑦⑥⑩ |④-⑤⑥|
⑨⑤⑧□ |⑦⑧⑨⑩|
④②□① |⑪---|

88
①②③④ |①②③④--|
⑪⑩⑩⑫ |⑤--⑥⑦⑧|
⑨⑧⑦⑥ |⑨-⑩-|
⑬⑤⑤⑭ |⑪⑫⑬⑭|

89
①①②② |①-②-|
□④④□ |③---|
□④④□ |----|
□③③□ |④---|

90
□□②① |①---|
②∨<□ |②---|
□>∧② |----|
①②□□ |----|

91
□□①□ |----|
①□□□ |----|
□□□① |----|
□①□□ |①---|

92
②③□① |①-②③|
⑧⑨⑦□ |④-⑤⑥|
⑤⑥□□ |⑦-⑧⑨|
⑪⑫⑩④ |⑩-⑪⑫|

93
④③②① |①-②-|
∨∨∨∨ |③-④-|
⑤⑤⑤⑤ |⑤---|
□□□□ |----|

94
⑤□□⑥ |----|
□□□□ |①-②-③-|
④③②① |④---|
□□□□ |---⑤-⑥|

95
□□□□ |-①----|
□□□□ |----|
□□□□ |----|
□①①□ |----|
最終更新:2026年03月30日 21:02