1
□□□□ |----|
□□□□ |----|
□②□□ |----|
□□①□ |------①②|
2
□②②□ |①---|
□□①□ |----|
□④□□ |②---|
③□□□ |③-④-⑤-|
□□□□
□□⑤□
□□□□
□□□□
3
□②②① |①---|
□⑤□□ |----|
□□④□ |②---|
□□□③ |③-④-⑤-|
4
①⑪⑯⑥ |①-②③④⑤|
⑤⑮⑩④ |⑥-⑦⑧⑨⑩|
③⑨⑭② |⑪-⑫⑬⑭⑮|
⑦⑬⑧⑫ |⑯-⑰⑱⑲⑳|
□□□□
⑲□□⑳
⑰□□⑱
□□□□
5
①⑤⑯⑥ |①-②③④⑤|
⑮⑪④⑭ |⑥-⑦⑧⑨⑩|
⑬③⑩⑫ |⑪-⑫⑬⑭⑮|
⑦⑨②⑧ |⑯---|
6
②③□□ |①--②|
⑦⑪⑩⑥ |-③④⑤|
□⑤□④ |⑥⑦⑧⑨|
⑨□①⑧ |⑩⑪⑫⑬|
□□□□
□□□□
□□□□
□⑬⑫□
7
⑥②⑤① |①②③④|
⑭⑩⑨⑬ |⑤⑥⑦⑧|
⑧④⑦③ |⑨⑩⑪⑫|
⑯⑫⑪⑮ |⑬⑭⑮⑯|
8
③①①□ |①--②|
⑪⑦⑩⑥ |-③④⑤|
⑤②④□ |⑥⑦⑧⑨|
⑬⑨⑫⑧ |⑩⑪⑫⑬|
9
⑦③②① |①②③-④-⑤-|
⑫⑪⑩⑥ |⑥⑦⑧⑨|
□⑤④□ |⑩⑪⑫-⑬-⑭-|
⑭⑨⑬⑧ |⑮⑯⑰⑱|
□⑯⑰⑮
□□□□
⑱□□□
□□□□
10
⑤⑭□⑬ |①②③-④-⑤-|
⑨⑦⑧⑥ |⑥⑦⑧⑨|
□③②① |⑩⑪⑫-⑬-⑭-|
⑫⑪⑩④ |⑮⑯⑰⑱|
⑱□⑰□
□□□□
⑯□□⑮
□□□□
11
□③④□ |①---|
□□□□ |----|
□①①□ |②---|
②□□② |③-④-|
12
⑤⑬⑯④ |①②③-④-⑤-|
⑦①⑭⑩ |⑥⑦⑧⑨|
⑪⑨②⑧ |⑩⑪⑫-⑬-⑭-|
⑮③⑥⑫ |⑮⑯⑰⑱|
⑰□□⑱
□□□□
□□□□
□□□□
13
⑮⑬⑯⑭ |①②③-④-⑤-|
⑦①⑧⑩ |⑥⑦⑧⑨|
⑪⑤②④ |⑩⑪⑫-⑬-⑭-|
⑨③⑥⑫ |⑮⑯⑰⑱|
□□□□
□□□□
□⑰□⑱
□□□□
14
⑮⑨⑯⑧ |①②③-④-⑤-|
⑦①④⑩ |⑥⑦⑧⑨|
⑪⑬②⑭ |⑩⑪⑫-⑬-⑭-|
⑤③⑥⑫ |⑮⑯⑰⑱|
□□□□
□□⑱□
□□□□
⑰□□□
15
□⑤□④ |①②③-④-⑤-|
⑦①⑭⑩ |⑥⑦⑧⑨|
⑪⑨②⑧ |⑩⑪⑫-⑬-⑭-|
⑬③⑥⑫ |⑮⑯⑰-⑱⑲⑳㉑|
㉑⑳⑲⑱
□⑮□□
□□⑯□
□⑰□□
16
□□□□ |①-②-|
②□□□ |③④--|
□□□③ |----|
□□①④ |----|
17
①①□□ |----|
□□□□ |①---|
□□□□ |----|
□□□□ |----|
18
□□□□ |①-②-|
④□□② |③④--|
③□□□ |----|
□①□□ |----|
19
□□□□ |----|
①□□① |----|
□①①□ |①---|
①□□① |----|
20
⑨④⑫⑧ |①②③④|
□⑦③⑩ |⑤⑥⑦⑧|
②⑪□⑤ |⑨⑩⑪⑫|
⑬□①⑥ |⑬⑭⑮⑯|
□□□□
⑮□⑭□
□□□□
□□⑯□
21
⑤⑤□④ |①②③④|
⑪③⑩⑥ |⑤⑥⑦⑧|
⑦⑬②⑫ |⑨⑩⑪⑫|
⑨①□⑧ |⑬⑭⑮⑯|
□□□⑯
□⑮□□
□□⑭□
□□□□
22
③⑧□⑪ |①②③④|
⑥□⑨④ |⑤⑥⑦⑧|
⑤⑫⑬□ |⑨⑩⑪⑫|
⑩①②⑦ |⑬⑭⑮⑯|
⑭□⑮□
□⑯□□
□□□□
□□□□
23
④□□⑤ |①-②-|
②⑤④③ |③---|
②④⑤③ |④---|
⑤□①④ |⑤---|
24
②①□□ |①---|
①□□□ |--②-|
□□□①
□□①□
25
⑪⑧⑤② |①-②③|
⑫⑨⑥③ |④-⑤⑥|
⑦□⑩□ |⑦-⑧⑨|
①④⑦① |⑩-⑪⑫|
26
□⑧⑤② |①-②③|
□⑨⑥③ |④-⑤⑥|
④⑦□① |⑦-⑧⑨|
①□⑦□ |⑩-⑪⑫|
⑪□□□
⑫□□□
□□□⑩
□□□□
27
⑪⑧⑤② |①-②③|
⑫⑨⑥③ |④-⑤⑥|
⑦□①⑩ |⑦-⑧⑨|
①④⑦□ |⑩-⑪⑫|
28
□□□② |①-②③|
□⑥⑥③ |④-⑤-|
□⑤⑤□ |⑥---|
①④④① |⑦⑧⑨⑩--|
⑩□□□
⑨□□□
⑧□□□
⑦□□□
29
⑩④⑩④ |①-②③|
⑪⑧⑤② |④-⑤⑥|
⑫⑨⑥③ |⑦-⑧⑨|
⑦①⑦① |⑩-⑪⑫|
30
⑩④⑩④ |①-②③|
⑪⑧⑤② |④-⑤⑥|
⑫⑨⑥③ |⑦-⑧⑨|
⑦①⑦① |⑩-⑪⑫|
31
⑩④⑩④ |①-②③|
⑪⑧⑤② |④-⑤⑥|
⑫⑨⑥③ |⑦-⑧⑨|
⑦①⑦① |⑩-⑪⑫|
32
②□②□ |①---|
□③□③ |----|
□□□□ |②--③|
④①④① |--④-|
33
⑦③⑭④ |①②③④|
⑤⑧□⑩ |⑤-⑥-⑦⑧⑨-|
⑨⑬②□ |⑩⑪⑫⑬|
⑪①⑫⑥ |⑭-⑮-⑯⑰⑱-|
□□□⑯
□□⑰□
□□□⑱
□⑮□□
34
⑪①⑩□ |①②③④|
⑦③□④ |⑤-⑥-⑦⑧⑨-|
⑤⑧⑥□ |⑩⑪⑫⑬|
⑨⑬⑫② |⑭-⑮-⑯⑰⑱-|
□□□⑯
□⑮⑰□
□□□⑱
□□□⑭
35
⑤③⑥⑫ |①②③④|
⑦⑪□② |⑤-⑥-⑦⑧⑨-|
①⑧④□ |⑩⑪⑫⑬|
⑨□⑩□ |⑭-⑮-⑯⑰⑱-|
□□□□
□□⑭⑯
⑬□⑰□
□⑮□⑱
36
⑦①④⑩ |①②③④|
□⑧□⑪ |⑤-⑥-⑦⑧⑨-|
⑨③□② |⑩-⑪-⑫-|
⑤□⑥⑫ |⑬-⑭-⑮-|
□⑬□□
□□□□
□⑭□□
□⑮□□
37
②⑫①⑦ |①②③④|
⑥④⑧□ |⑤-⑥-⑦⑧⑨-|
□□⑤⑨ |⑩⑪⑫⑬|
⑩□③⑪ |⑭-⑮-⑯⑰⑱-|
⑯□⑬□
□⑰□⑮
⑱□□□
□⑭□□
38
⑫⑥□⑦ |①②③④|
□□⑧⑪ |⑤-⑥-⑦⑧⑨-|
□②①⑨ |⑩⑪⑫⑬|
④⑩③⑤ |⑭-⑮-⑯⑰⑱-|
□□⑮□
⑯⑭□□
□⑰⑬□
⑱□□□
39
⑩②⑪③ |①②③④|
□⑫⑬⑦ |⑤-⑥-⑦⑧⑨-|
④□⑧⑤ |⑩⑪⑫⑬|
□⑥①⑨ |⑭-⑮-⑯⑰⑱-|
□⑭□□
⑯□□□
□⑰□□
⑱□⑮□
40
④⑤⑪① |①-②-|
⑧⑫⑥□ |③-④-|
②⑨□⑦ |⑤⑥⑦-⑧⑨⑩-|
□□⑩③ |⑪⑫⑬-⑭⑮⑯-|
□□□□
□□□⑭
⑬□⑮□
□⑯□□
41
□□□□ |①---|
□□□□ |----|
□□□□ |----|
□□□① |----|
42
①□□□ |①---|
□□□□ |----|
□□□□ |----|
□□□□ |----|
43
□□□□ |①---|
□①①□ |----|
□①①□ |----|
□①①□ |----|
44
□□□□ |----|
□□□□ |----|
□□□□ |----|
□□□□ |----|
45
①□④① |①--②|
③□⑧□ |③-④-|
⑤□②⑦ |⑤⑥--|
⑦□□⑥ |⑦-⑧-|
46
①①④□ |①--②|
③□□⑦ |③-④-|
⑤□②⑥ |⑤⑥--|
⑦□⑧□ |⑦--⑧|
47
①□②□ |①--②|
③④⑧⑥ |③-④-|
⑤□□⑦ |⑤⑥--|
⑦□□□ |⑦-⑧-|
48
①②⑤① |①-②③|
④⑤□□ |④-⑤-|
⑥□③□ |⑥⑦--|
□⑧⑧⑦ |-⑧--|
49
①②□① |①-②③|
④⑤⑤⑨ |④-⑤-|
⑥⑧③⑩ |⑥⑦⑧-|
⑨⑩□⑦ |⑨-⑩-|
50
①②⑨① |①-②③|
④⑤⑤□ |④-⑤-|
⑥⑧③□ |⑥⑦⑧-|
⑨⑩□⑦ |⑨-⑩-|
51
①⑤⑧④ |①-②-③-|
④②□⑩ |④-⑤-⑥-|
⑦⑨③① |⑦-⑧-⑨-|
□□⑥⑦ |⑩-⑪-⑫-|
□□□□
□⑪□□
□□⑫□
⑩□□□
52
⑦⑥⑨① |①-②-③-|
①⑧⑤⑦ |④-⑤-⑥-|
④□□□ |⑦-⑧-⑨-|
□②③④ |⑩---|
□□□⑩
⑩□□□
□□□□
□□□□
53
②③④□ |①---|
⑤□□□ |--②-|
①①①① |③-④-|
①①①① |⑤⑥⑦⑧⑨⑩|
□□□□
□⑧□□
⑥⑨□□
⑦⑩□□
54
⑦⑧⑨□ |①②③④⑤⑥|
□□①④ |⑦⑧⑨⑩--|
□□②⑤ |----|
□□③⑥ |----|
□□□⑩
□□□|
□□□|
□□□∧
55
□□□① |----|
□□□□ |----|
□□□□ |----|
□□□□ |①---|
56
⑪⑫⑬⑭ |①②③④⑤-⑥-|
⑤⑦⑧⑥ |⑦⑧⑨⑩|
①②③④ |⑪⑫⑬⑭⑮-⑯-|
⑨⑮⑯⑩ |⑰⑱⑲⑳|
□□□□
□□□□
⑰⑲⑳⑱
□□□□
57
⑦⑨⑩⑧ |①②③④⑤-⑥-|
①②③④ |⑦⑧⑨⑩|
□⑫⑫□ |⑪---|
⑤⑪□⑥ |⑫---|
58
⑥⑧⑦⑤ |①②③④⑤-⑥-|
④③②① |⑦⑧⑨⑩|
⑭⑬⑫⑪ |⑪⑫⑬⑭⑮-⑯-|
⑯⑩⑨⑮ |⑰⑱⑲⑳|
□□□□
⑳⑱⑰⑲
□□□□
□□□□
59
④③②① |①②③④⑤-⑥-|
□□⑪□ |⑦⑧⑨⑩|
⑧⑫□⑦ |⑪---|
⑩⑥⑤⑨ |⑫---|
60
⑭⑬⑨⑤ |①②③④⑤-⑥-|
④③⑮⑦ |⑦⑧⑨⑩|
⑧⑯②① |⑪⑫⑬⑭⑮-⑯-|
⑥⑩⑫⑪ |⑰⑱⑲⑳|
□□□⑲
⑱□□□
□□□⑰
⑳□□□
61
⑯⑧⑤⑬ |①②③④⑤-⑥-|
⑮③⑨① |⑦⑧⑨⑩|
④⑩②⑫ |⑪-⑫-⑬-|
⑭⑥⑦⑪ |⑭-⑮-⑯-|
62
⑯②①⑨ |①②③④⑤-⑥-|
⑫④③⑪ |⑦⑧⑨⑩|
⑭⑥⑦⑬ |⑪⑫⑬⑭⑮-⑯-|
⑩⑧⑤⑮ |⑰⑱⑲⑳|
□⑱⑲□
□⑳⑰□
□□□□
□□□□
63
□□□⑤ |①②③④⑤-⑥-|
⑧□□⑦ |⑦⑧⑨⑩|
⑩②①⑪ |⑪---|
⑥④③⑨ |⑫---|
□□□□
□□□□
□⑫□□
□□□□
64
⑧⑦⑥⑤ |①②③④⑤⑥⑦⑧|
④③②① |⑨⑩⑪⑫|
⑩⑯⑬⑨ |⑬⑭⑮⑯|
⑫⑭⑮⑪ |⑰⑱⑲⑳|
□⑳⑲□
□⑱⑰□
□□□□
□□□□
65
⑤⑯⑮① |①②③④⑤⑥⑦⑧|
⑥⑭⑬② |⑨⑩⑪⑫|
⑦⑫⑨③ |⑬⑭⑮⑯|
⑧⑩⑪④ |⑰---|
□□□□
□□□⑰
□□□□
□□□□
66
⑪⑮⑯⑩ |①②③④⑤⑥⑦⑧|
⑬⑨⑭⑫ |⑨⑩⑪⑫|
⑤⑥⑦⑧ |⑬⑭⑮⑯|
①②③④ |⑰⑱⑲⑳|
□□□□
□□□□
⑲□⑳□
⑰□□⑱
67
③⑦⑫② |①---②③④⑤|
⑤⑬⑧④ |⑥---⑦⑧⑨⑩|
□⑨⑭⑥ |⑪---⑫⑬⑭⑮|
⑪①⑩□ |⑯---⑰⑱⑲⑳|
⑰□□⑱
⑲□□⑳
□□□□
□⑮□⑯
68
□□□□ |①---|
□□□□ |----|
①□□□ |----|
□□□□ |----|
最終更新:2026年03月30日 21:03