IRIS OUT
米津玄師
BPM:135
Notes:472
1
□□□□ |----|
□□□□ |----|
□□□□ |----|
□□□□ |----|
2
□□□□ |----|
□□□□ |----|
□□□□ |----|
□□□□ |----|
3
□□□□ |----|
□□□□ |----|
□□□□ |----|
□□□□ |----|
4
①③①③ |①-②-|
□□□□ |③-④--⑤|
□□④□ |--⑥⑦-⑧|
②□⑤□ |⑨-⑩-|
□□⑥□
⑦□⑧□
⑨□□⑩
□□□□
5
③①③① |①-②-|
□□□□ |③-④--⑤|
□④□□ |--⑥⑦-⑧|
□⑤□② |⑨-⑩-|
□⑥□□
□⑧□⑦
⑩□□⑨
□□□□
6
①③①③ |①-②-|
□□□⑤ |③-④--⑤|
□□□□ |--⑥⑦-⑧|
②□④□ |⑨-⑩⑪--|
□□⑥□
⑦□⑧□
⑨□⑩□
⑪□□□
7
③⑤③② |①-②-|
□⑦□⑥ |③-④--⑤|
□④□⑧ |⑥-⑦⑧-⑨|
□①□① |----|
□□□□
□□□□
□□□□
□⑨□□
8
①③①③ |①-②-|
□□□□ |③-④--⑤|
□□④□ |--⑥⑦-⑧|
②□⑤□ |⑨-⑩-|
□□⑥□
⑦□⑧□
⑨□□⑩
□□□□
9
③①③① |①-②-|
□□□□ |③-④--⑤|
□④□□ |--⑥⑦-⑧|
□⑤□② |⑨-⑩-|
□⑥□□
□⑧□⑦
⑩□□⑨
□□□□
10
①③①③ |①-②-|
□□□⑤ |③-④--⑤|
□□□□ |--⑥⑦-⑧|
②□④□ |⑨-⑩⑪--|
□□⑥□
⑦□⑧□
⑨□⑩□
⑪□□□
11
③□③② |①-②-|
□⑤⑥□ |③-④--⑤|
□④□□ |⑥---|
□①□① |----|
12
⑦⑤⑥⑦ |①-②-|
□⑥⑤□ |③-④-|
①②③④ |⑤-⑥-|
②①④③ |--⑦-|
13
□④④□ |--①-|
⑤□□⑤ |②-③-|
①□③□ |④-⑤-|
□②□□ |⑥-⑦-|
□□□□
□□□□
⑥□□⑥
□⑦⑦□
14
□□⑦□ |①-②-|
⑧□②⑥ |③-④-|
□③⑤□ |⑤-⑥-|
④□□① |⑦-⑧-|
15
□□□□ |①-②-|
□⑤④□ |③-④-|
□①□③ |⑤---|
□□②□ |----|
16
□⑤⑥□ |①-②-|
①④②③ |③-④-|
⑦⑥⑤⑦ |⑤-⑥-|
②③①④ |--⑦-|
17
□②③□ |--①-|
①④□⑥ |②-③-|
□④⑤⑥ |④-⑤-|
□□⑤□ |⑥-⑦-|
□□□□
⑦□□□
□□□□
□□□□
18
□①□□ |①-②-|
□⑥②□ |③-④-|
□③⑤□ |⑤-⑥-|
□⑦□④ |⑦-⑧-|
□□□□
□□⑧□
□□□□
□□□□
19
□①□□ |①-②-|
②□⑦⑤ |③-④-|
⑥③④□ |⑤---|
□□□□ |⑥-⑦⑧-⑨|
□□⑨□
⑧□□□
□□□□
□□□□
20
①□□② |①---|
□③⑩④ |②-③④-⑤|
⑨⑤⑧⑥ |⑥---|
⑦□□□ |⑦-⑧⑨-⑩|
21
⑥②②⑥ |①-②-|
①□⑩③ |③-④⑤--|
⑦④□⑤ |⑥---|
□⑨⑧□ |⑦-⑧⑨-⑩|
22
□⑦⑥□ |①-②-|
③①⑫⑧ |③-④⑤-⑥|
□⑤④② |⑦-⑧-|
⑨⑪⑩□ |⑨-⑩⑪-⑫|
23
⑤□□④ |①-②③-④|
⑦①□⑥ |⑤-⑥⑦-⑧|
⑨③②⑧ |⑨---|
□□□⑩ |⑩-⑪⑫-⑬|
□□□□
□⑬□□
□⑪⑫□
□□□□
24
⑧②□□ |①-②-|
②□①□ |③-④⑤-⑥|
□⑥⑦③ |⑦--⑧-⑨|
⑩④⑤⑨ |⑩-⑪⑫-⑬|
□□□□
□□□⑬
⑫□□⑪
□□□□
25
⑦③②⑥ |①-②③-④|
①□⑩□ |⑤-⑥⑦--|
□⑤④⑨ |⑧---|
⑧⑧□□ |⑨-⑩-|
26
⑦①□④ |①--②-③|
□③⑥⑨ |④--⑤-⑥|
□⑧⑧□ |⑦-⑧-|
⑤⑤②② |⑨-⑩⑪--|
□□□□
□□□□
⑩□□□
□□⑪□
27
□□□⑤ |①---|
①③③□ |②---|
□③③② |③---|
④□□□ |④-⑤-|
28
⑦①②⑥ |①---|
②⑤□① |②---|
①□④② |③④⑤⑥|
③②①□ |-⑦⑧-|
□□□□
□□□□
□□□⑧
□□□□
29
③④⑤⑥ |①---|
①②①② |②---|
□⑦□□ |③④⑤⑥|
②①②① |-⑦⑧-|
□□□□
□□□□
□□□□
□□⑧□
30
③□⑧□ |①-②-|
□④□⑦ |③-④-|
②□⑥□ |⑤-⑥-|
①①⑤⑤ |⑦-⑧-|
31
□①□□ |①-②-|
⑥□②⑥ |③-④-|
⑥③□⑥ |⑤---|
□⑤④□ |⑥---|
32
②③③① |①---|
④①②⑤ |②---|
⑥②①⑦ |③-④⑤|
①□□② |-⑥⑦-|
33
①□□② |①-②-|
③①②④ |③-④-|
⑦③④⑥ |⑤---|
□⑤⑤□ |⑥-⑦-|
34
⑥□□⑦ |①-②-|
③□□② |③-④-|
⑤□□⑧ |⑤-⑥-|
④□□① |⑦-⑧-|
35
□②②□ |①---|
②①①② |②---|
③①①③ |③---|
□③③□ |----|
36
□□□⑤ |①-②-|
②□⑧③ |③-④-|
⑦④□⑥ |⑤-⑥-|
①□□□ |⑦-⑧-|
37
□□⑤⑤ |①-②-|
②②□⑧ |③-④-|
⑦④⑥⑥ |⑤-⑥-|
①①□③ |⑦-⑧-|
38
③⑥⑥⑥ |①-②-|
②②②□ |③-④-|
⑦⑤⑤⑤ |⑤-⑥-|
①①①④ |⑦-⑧-|
⑧□□□
□□□□
□□□□
□□□□
39
⑤⑤⑤⑤ |①-②-|
②②②② |③-④-|
□④□③ |⑤-⑥-|
①①①① |⑦---|
□□□□
⑦□□□
⑦□□□
⑥⑥⑥⑥
40
④□□③ |--①②|
⑧②①⑦ |③④⑤⑥|
⑩⑥⑤⑨ |⑦⑧⑨⑩|
⑫⑭⑬⑪ |⑪⑫⑬⑭|
41
⑥②①⑤ |①②③④|
□□□□ |⑤⑥⑦⑧|
⑧④③⑦ |⑨⑩⑪⑫|
⑩⑫⑪⑨ |⑬⑭⑮⑯|
□□□□
□⑯⑮□
□⑭⑬□
□□□□
42
④③②① |①②③④|
⑤□□⑫ |⑤⑥⑦⑧|
⑥□□⑪ |⑨⑩⑪⑫|
⑦⑧⑨⑩ |⑬⑭⑮⑯|
⑯⑮⑭⑬
□□□□
□□□□
□□□□
43
□⑩⑩□ |①②③④|
□②①□ |⑤⑥⑦⑧|
⑥④③⑤ |⑨---|
⑧□⑨⑦ |⑩---|
最終更新:2026年05月27日 00:30