イガク
原口沙輔
BPM:170
Notes:877
1
□□□□ |①---|
□①①□ |----|
②□□② |----|
②□□② |②---|
2
⑦□③② |①-②-|
③④①□ |③-④-|
□□⑤□ |⑤-⑥-|
□□□⑥ |--⑦-|
3
□①⑤□ |①-②-|
⑦□②□ |③-④-|
②③⑤⑦ |⑤-⑥-|
④⑥□□ |⑦---|
4
②③□⑦ |①-②-|
□①④③ |③-④-|
□⑤□□ |⑤-⑥-|
⑥□□□ |--⑦-|
5
③□①□ |①-②-|
②④□□ |③-④-|
⑥□⑦⑨ |⑤⑥⑦⑧|
⑩⑧②⑤ |⑨⑩⑪⑫|
□□□□
□□□□
□⑫□□
□□⑪□
6
⑦□③② |①-②-|
③④①□ |③-④-|
□□⑤□ |⑤-⑥-|
□□□⑥ |--⑦-|
7
□①⑤□ |①-②-|
⑦□②□ |③-④-|
②③⑤⑦ |⑤-⑥-|
④⑥□□ |⑦---|
8
②④④② |①---|
④②②④ |②---|
□①③□ |--③-|
□③①□ |--④-|
9
③□□④ |--①-|
□⑤⑤□ |--②-|
□①⑤② |③-④-|
□⑤⑤⑤ |⑤---|
10
⑦□④□ |①-②-|
□⑤□□ |③---|
①②⑥③ |④-⑤-|
□□□□ |⑥-⑦-|
11
□□□② |--①-|
□□□① |----|
□□□② |②---|
□□□① |----|
12
□□□⑤ |①---|
①⑥□□ |②-③-|
④□③② |④---|
□□□□ |⑤-⑥-|
13
□□①□ |--①-|
⑤□⑥⑧ |②-③-|
⑨⑦①④ |④⑤⑥⑦|
③②□□ |⑧⑨⑩⑪|
□□□□
□⑪□□
□□⑩□
□□□□
14
⑥□①① |①---|
□⑤③③ |②---|
□□□⑤ |③-④-|
②④□② |⑤-⑥-|
15
□②□① |①-②-|
□④□④ |③---|
□②⑥⑤ |④---|
□④□③ |⑤⑥⑦-|
□□□□
□□□□
□⑦□□
□□□□
16
④②④② |①---|
□④②□ |②---|
①□□③ |--③-|
□③①□ |--④-|
17
④⑤④⑤ |--①-|
□⑥⑦③ |--②-|
□②②□ |③-④-|
①□□① |⑤-⑥⑦|
18
⑥□④□ |①-②-|
③⑤□⑦ |③---|
④□⑥□ |④-⑤-|
①①②③ |⑥-⑦-|
19
⑤□④□ |①-②-|
③□②□ |③---|
④□④□ |④---|
①□②□ |⑤---|
20
④□□④ |①---|
□③③□ |②---|
②□□① |③---|
②①②① |④-⑤-|
□□□□
□□□□
□□□□
□⑤□□
21
□②③□ |①-②-|
⑧⑥□⑤ |③---|
④②⑦⑨ |④⑤⑥⑦|
□□①□ |⑧⑨⑩⑪|
□□□□
□□⑪□
□⑩□□
□□□□
22
①①□⑥ |①---|
③③⑤□ |②---|
⑤□□□ |③-④-|
②□④② |⑤-⑥-|
23
①□②□ |①-②-|
④□□④ |③---|
⑤□②⑤ |④---|
③□□④ |⑤---|
24
②④④② |①---|
④②②④ |②---|
□①③□ |--③-|
□③①□ |--④-|
25
③□□④ |--①-|
□⑤⑤□ |--②-|
□①⑤② |③-④-|
□⑤⑤⑤ |⑤---|
26
③④⑤□ |①-②-|
②□□□ |③-④-|
①⑥□□ |⑤---|
⑦□□□ |⑥-⑦-|
27
□□□□ |①-②-|
□⑥⑥① |③-④-|
□□□② |⑤---|
□⑤④③ |⑥---|
28
□①②③ |①-②-|
□□□④ |③-④-|
⑥□□⑤ |⑤---|
□⑦□□ |⑥-⑦-|
29
②□□⑤ |①-②-|
⑥⑦③□ |③-④-|
□④□□ |⑤---|
□□□① |⑥-⑦-|
30
⑥②□⑤ |①-②-|
□□④① |③-④-|
②④③□ |⑤---|
⑤□①③ |⑥-⑦-|
□□□□
□□□⑦
□□□□
□□□□
31
⑤□②⑥ |①-②-|
①④□□ |③-④-|
□③④② |⑤---|
③①□⑤ |⑥-⑦-|
□□□□
⑦□□□
□□□□
□□□□
32
□②①□ |①-②-|
⑥⑧④① |③-④-|
⑤③⑦② |⑤-⑥-|
□⑤⑥□ |⑦-⑧-|
33
③④⑤③ |①-②-|
□□□① |③-④-|
□②□③ |⑤---|
⑤□□① |⑥---|
□□□□
□⑥⑥□
□□⑥□
□⑥⑥⑥
34
②□③④ |①-②-|
④□⑤□ |③---|
①③□① |④-⑤-|
□□□□ |⑥-⑦-|
□□□□
□⑥□□
□□□⑥
⑦□□□
35
③②□□ |①---|
④□③① |②---|
②④②□ |③-④-|
□①①③ |⑤---|
□□⑤□
□□□⑤
□□□□
□□□□
36
④③□② |①-②-|
□⑤□④ |③---|
①□③① |④-⑤-|
□□□□ |⑥-⑦-|
□□□□
□□⑥□
⑥□□□
□□□⑦
37
②□③③ |①---|
□□□② |②---|
□②①① |③---|
③①□□ |④---|
□□□□
□④④□
□□④□
□④④④
38
②□③④ |①-②-|
④□⑤□ |③---|
①③□① |④-⑤-|
□□□□ |⑥-⑦-|
□□□□
□⑥□□
□□□⑥
⑦□□□
39
□②③③ |①---|
④□□① |②---|
②③①□ |③---|
□①⑤② |④-⑤-|
40
①②③④ |①-②-|
⑤□□③ |③-④-|
⑤□□② |⑤---|
□□□① |⑥-⑦-|
⑥⑦□□
□□□□
□□□⑦
□□□⑥
41
□□①② |①-②-|
③④④① |③---|
③④④□ |④---|
⑤⑥⑦□ |⑤⑥⑦-|
42
④③□② |①-②-|
□⑤□④ |③---|
①□③① |④-⑤-|
□□□□ |⑥-⑦-|
□□□□
□□⑥□
⑥□□□
□□□⑦
43
□□②③ |①---|
①③□④ |②---|
□②④② |③-④-|
③①①□ |⑤---|
□⑤□□
⑤□□□
□□□□
□□□□
44
②□③④ |①-②-|
④□⑤□ |③---|
①③□① |④-⑤-|
□□□□ |⑥-⑦-|
□□□□
□⑥□□
□□□⑥
⑦□□□
45
③②③② |①---|
②□□① |②---|
①③□□ |③---|
□□①□ |④---|
□□□□
□④④□
□□④□
□④④④
46
④③□② |①-②-|
□⑤□③ |③---|
①□④① |④-⑤-|
□□□□ |⑥-⑦-|
□□□□
□□⑥□
⑥□□□
□□□⑦
47
□⑤②③ |①---|
□③□① |②---|
□①②④ |③---|
②③①□ |④-⑤-|
48
①□□□ |①-②-|
②□□⑤ |③-④-|
③□□⑤ |⑤---|
④③②① |⑥-⑦-|
⑥□□□
⑦□□□
□□□□
□□⑦⑥
49
□④④□ |①-②-|
⑤③③④ |③---|
①③③④ |④---|
②①⑥□ |⑤-⑥-|
50
②③□⑦ |①-②-|
□①④③ |③-④-|
□⑤□□ |⑤-⑥-|
⑥□□□ |--⑦-|
51
□⑤①□ |①-②-|
□②□⑦ |③-④-|
⑦⑤③② |⑤-⑥-|
□□⑥④ |⑦---|
52
⑦□③② |①-②-|
③④①□ |③-④-|
□□⑤□ |⑤-⑥-|
□□□⑥ |--⑦-|
53
□①□③ |①-②-|
□□④② |③-④-|
⑨⑦□⑥ |⑤⑥⑦⑧|
⑤②⑧⑩ |⑨⑩⑪⑫|
□□□□
□□□□
□□⑫□
□⑪□□
54
②③□⑦ |①-②-|
□①④③ |③-④-|
□⑤□□ |⑤-⑥-|
⑥□□□ |--⑦-|
55
□⑤①□ |①-②-|
□②□⑦ |③-④-|
⑦⑤③② |⑤-⑥-|
□□⑥④ |⑦---|
56
③□①⑥ |①-②-|
□②⑤□ |③-④-|
□□⑧④ |⑤-⑥-|
□⑦□□ |⑦-⑧-|
57
⑥⑥⑤⑤ |①-②-|
②□□□ |③-④-|
□③□□ |⑤-⑥-|
④□□① |⑦---|
□□□□
□⑦⑦□
□□⑦□
□⑦⑦⑦
58
⑦□④□ |①-②-|
□⑤□□ |③---|
①②⑥③ |④-⑤-|
□□□□ |⑥-⑦-|
59
□□□② |--①-|
□□□① |----|
□□□② |②---|
□□□① |----|
60
④□□□ |①---|
□□①□ |②---|
□②□□ |③---|
□⑤③□ |④-⑤-|
61
⑧③⑦⑦ |①-②-|
⑧③②① |③-④⑤|
⑥□②① |⑥-⑦-|
⑥□⑤④ |⑧-⑨⑩|
□□□□
□□□□
□⑩⑨□
□□□□
62
⑦□□⑩ |①-②-|
□⑪⑧① |③④⑤⑥|
⑨□□② |⑦⑧⑨-|
③④⑤⑥ |⑩⑪⑫-|
□□□□
□□□□
□□□⑫
□□□□
63
⑦③⑥□ |①②③-|
⑧□□□ |④⑤⑥-|
⑨⑤②□ |⑦-⑧-|
①□□④ |⑨-⑩-|
□□□□
□□□□
□□□□
⑩□□□
64
□④②□ |①---|
③□□① |②---|
③□□① |--③-|
□④②□ |--④-|
65
①⑦③① |--①-|
□⑧④⑪ |--②-|
②⑨⑤② |③④⑤⑥⑦⑧⑨⑩|
□⑩⑥□ |⑪---|
66
□□□□ |①---|
□□□□ |----|
□□□□ |--②-|
①③③② |③-④-|
□□□□
□□□□
□□□□
④□□□
67
①①①① |①-②-|
⑦②②④ |③---|
⑦③③④ |④-⑤-|
⑥⑥⑤⑤ |⑥-⑦-|
68
②④③② |①-②-|
□⑥⑤⑦ |③④⑤⑥|
□①①□ |⑦-⑧-|
□□⑧□ |⑨---|
□□□□
⑨□□□
□⑨□□
⑨□□□
69
④③□② |①-②-|
□⑤□④ |③---|
①□③① |④-⑤-|
□□□□ |⑥-⑦-|
□□□□
□□⑥□
⑥□□□
□□□⑦
70
②□③③ |①---|
□□□② |②---|
□②①① |③---|
③①□□ |④---|
□□□□
□④④□
□□④□
□④④④
71
②□③④ |①-②-|
④□⑤□ |③---|
①③□① |④-⑤-|
□□□□ |⑥-⑦-|
□□□□
□⑥□□
□□□⑥
⑦□□□
72
④②③□ |①---|
□③□① |②---|
②①⑤③ |③---|
□□①② |④-⑤-|
73
□□□① |①-②-|
⑤□□② |③-④-|
⑤□□③ |⑤---|
①②③④ |⑥-⑦-|
□□□⑥
□□□⑦
□□□□
⑥⑦□□
74
⑦□⑥□ |①-②-|
③⑤□⑧ |③---|
③□④① |④⑤⑥-|
⑨□①② |⑦⑧⑨-|
75
⑥⑦⑧□ |①-②-|
□□⑤□ |③-④-|
②③④⑤ |⑤-⑥-|
□□⑤① |⑦-⑧-|
76
⑤④⑤① |①---|
②①□② |②-③-|
□②③④ |④---|
①⑤④⑤ |⑤---|
77
□□④□ |--①-|
①②③④ |②-③-|
□□④□ |④-⑤-|
⑤⑥□□ |⑥---|
78
□④②④ |①---|
②①□② |②-③-|
①③□□ |④---|
④□□① |⑤---|
□□□□
□⑤⑤□
□□⑤□
□⑤⑤⑤
79
□③②④ |①-②-|
④□□③ |③---|
①□⑤① |④-⑤-|
□□□□ |⑥-⑦-|
□□□□
□□⑥□
⑥□□□
□⑦□□
80
③③□② |①---|
③□□□ |②---|
□□□① |③---|
②□①① |④--⑤|
□□□□
□⑤⑤□
□④⑤④
□⑤⑤⑤
81
④③②① |①-②-|
③□□⑤ |③-④-|
②□□⑤ |⑤---|
①□□□ |⑥-⑦-|
□□⑦⑥
□□□□
⑦□□□
⑥□□□
82
②①□□ |①-②-|
①④④③ |③---|
□④④③ |④---|
□□□□ |⑤-⑥-|
□⑤⑥□
□□□□
□□□□
□□□□
83
□□□□ |①---|
□□□□ |----|
①□□① |----|
①①①① |----|
最終更新:2026年05月27日 00:33