BPM:133
1
□□□□ |----|
□□□□ |----|
□□②□ |----|
□①□□ |①-②-|
2
□②□① |①---|
□②□③ |--②-|
□⑤□① |③---|
□□④③ |④-⑤-|
3
①⑤②⑤ |①---|
③□②□ |--②-|
①□□⑤ |③---|
③□④□ |④-⑤-|
4
③□③□ |--①-|
□④①□ |②-③-|
③⑤⑤□ |--④-|
□②□□ |⑤---|
5
①□□① |①---|
④②②□ |--②-|
□④□□ |③---|
□③③□ |--④-|
6
□③①□ |①---|
④□□② |--②-|
③□②① |③---|
□④□□ |--④-|
7
③④④① |①---|
□③①② |--②-|
□□□□ |③---|
⑤□②⑤ |④-⑤-|
8
⑥□□⑥ |--①-|
⑤①①⑤ |②-③-|
④②②④ |④-⑤-|
□③③□ |⑥---|
9
□①②□ |①---|
□□□□ |②---|
□①②□ |③---|
□②①□ |④-⑤-|
③□□④
④□□③
□□□□
④⑤⑤③
10
②□□③ |①---|
□①①□ |②---|
④□□④ |③---|
□□□□ |④---|
11
⑦□□⑦ |①-②-|
①⑥⑥③ |③-④-|
⑤□□⑤ |⑤--⑥|
□②④□ |--⑦-|
12
□□③□ |--①-|
②④□② |--②-|
□□⑤□ |--③-|
□①□□ |④-⑤-|
13
□⑥⑥□ |①---|
□④③② |②③④-|
□□□□ |--⑤-|
⑤①□□ |--⑥-|
14
□□□□ |①-②-|
⑤③③① |--③-|
□□□□ |--④-|
□④②□ |⑤---|
15
□①①□ |①---|
□③□□ |②-③-|
□□□□ |④-⑤-|
②□□□ |⑥-⑦-|
□□⑥□
□□□⑤
□□④□
□⑦⑦□
16
□②□□ |--①②|
②①□③ |--③-|
□□③□ |----|
④□□④ |④---|
17
□□□④ |①-②-|
□□③□ |③-④-|
①□□② |⑤-⑥-|
□□①□ |⑦-⑧-|
⑤□□□
□⑥□□
⑦□□□
□⑧□□
18
□□④□ |①-②③|
□□③□ |④---|
□□②□ |----|
①□□① |----|
19
□□□□ |--①-|
①⑤⑧② |②-③④|
①⑦④② |⑤---|
□③⑥□ |⑥⑦⑧-|
20
□⑦⑦□ |--①-|
①□□② |②③④⑤|
⑧□④③ |⑥--⑦|
①⑥⑤□ |---⑧|
21
□□□□ |①--②|
⑤①③□ |③--④|
□④□② |⑤---|
□⑧⑦⑥ |⑥-⑦-⑧-|
22
④⑤⑥⑦ |①-②-③-|
③□□□ |④-⑤-⑥-|
②□□□ |⑦---|
①□□□ |⑧-⑨⑩|
□□□□
□□□□
□⑩□□
⑧□⑨⑧
23
□③④⑤ |①-②③|
②□①□ |-④-⑤|
⑥□⑨⑥ |⑥---|
⑦⑧□⑦ |⑦-⑧⑨|
24
⑤④③□ |①-②③|
□①□② |-④-⑤|
⑥□□⑥ |⑥---|
□□□□ |⑦-⑧-|
□□□□
⑦□□⑧
□□□□
□⑦⑧□
25
□②②④ |①--②|
□□□□ |-③④-|
□①①□ |⑤⑥⑦⑧|
③□□□ |⑨⑩-⑪|
□□□□
⑤⑥⑨⑩
□⑦⑧□
⑪□□□
26
□①①② |①--②|
□□□□ |-③④-|
□□□□ |⑤--⑥|
□③④□ |----|
⑤□⑥□
⑤⑤⑥⑥
⑤⑤⑥⑥
□□□□
27
□□□□ |----|
□□□□ |①-②-③-|
□□□□ |④-⑤⑥|
①②③④ |--⑦-|
□□□⑥
□⑤□□
□□□□
⑦□□□
28
②□□□ |①②-③|
⑥⑦①□ |④⑤⑥⑦|
□⑤④③ |⑧⑨⑩⑪|
□□□□ |--⑫-|
⑪⑩⑨⑧
□□□□
□□□□
□⑫⑫□
29
□□□□ |①-②③|
①②□① |--④-|
④□③④ |⑤⑥-⑦|
□□□□ |⑧⑨⑩-|
⑦□⑤□
□⑧□□
□⑥⑨□
□□□⑩
30
⑧①⑦① |①-②③|
③⑥③□ |-④⑤⑥|
□⑤□□ |⑦--⑧|
□②④⑧ |----|
31
⑧④⑤③ |①-②-|
⑦⑧③② |③-④⑤|
⑥⑦②① |⑥-⑦-|
⑩⑥①⑨ |⑧-⑨⑩|
32
□⑫⑫⑨ |①②③④|
⑧⑪⑩⑤ |⑤⑥⑦⑧|
④⑦⑥① |⑨⑩⑪-|
□③②□ |⑫---|
33
□⑤④□ |①-②-|
③□□□ |③-④⑤|
②□□□ |⑥⑦⑧⑨|
①②③□ |--⑩-|
□□□□
□⑦⑥□
□⑨⑧□
⑩□□⑩
34
⑤□□② |①②-③|
④□□① |④⑤-⑥|
③□⑥□ |⑦---|
□□□□ |⑧-⑨-|
□□□□
□⑦⑦□
⑨□□⑨
□⑧⑧□
35
①①①① |①---|
②□□② |--②-|
□⑤⑤□ |③---|
④③③④ |④-⑤-|
36
①□□① |①---|
□②②□ |--②-|
①□□① |③---|
□③③□ |④-⑤-|
⑤□□⑤
□□□□
④□□④
□□□□
37
④①①⑤ |--①-|
③□③□ |②-③-|
③③③□ |--④-|
②③□② |⑤---|
38
□①①□ |①---|
②④④② |--②-|
□□□□ |③---|
□③③□ |--④-|
39
①③③① |①---|
③④④③ |--②-|
①□□① |③---|
□②②□ |--④-|
40
③□□③ |①---|
□□□□ |--②-|
①②②① |③---|
①□□① |④-⑤-|
□□□□
④□□④
□□□□
⑤□□⑤
41
①□□① |--①-|
⑥②②⑥ |②-③-|
③⑤⑤③ |④-⑤-|
□④④□ |⑥---|
42
③□□③ |①---|
□①①□ |②---|
②③③② |③---|
①②②① |④-⑤-|
□□□□
□⑤□□
□□□□
□□□④
43
□①③⑤ |①---|
③□②① |--②-|
①②□③ |③---|
④③①□ |④-⑤-|
44
①□□③ |①---|
②③①□ |--②-|
□①③② |③---|
③□□① |④-⑤-|
□⑤□□
□□④⑤
⑤④□□
□□⑤□
45
③□③① |--①-|
③③③□ |②-③-|
④③□⑤ |--④-|
②④⑤□ |⑤---|
46
②□□③ |①---|
□①□□ |--②-|
□□①□ |③---|
③□□② |--④-|
□□□□
□④□□
□□④□
□□□□
47
□①□③ |①---|
③□②① |--②-|
①②□③ |③---|
③□①□ |--④-|
□□□□
□□□④
④□□□
□□□□
48
①⑤④□ |①---|
③①②③ |--②-|
③②①③ |③---|
□④⑤① |④-⑤-|
49
①⑤□⑥ |--①-|
□②④③ |②-③-|
③④②□ |④-⑤-|
⑥□⑤① |⑥---|
50
①□②□ |①---|
①□□② |②---|
②□□① |③---|
□②□① |④-⑤-|
□④□③
⑤③④□
□④③□
③□④□
51
④□□④ |①---|
□□□① |②---|
③□□③ |③---|
□②□□ |④---|
52
⑧②①⑦ |①②③④|
□④③□ |⑤⑥⑦⑧|
□⑥⑤□ |⑨⑩⑪⑫|
□□□□ |⑬⑭⑮⑯|
□□□□
⑩⑭⑬⑨
⑫⑯⑮⑪
□□□□
53
□⑩⑩□ |①②③④|
④□□③ |⑤⑥⑦⑧|
⑥□⑨⑤ |⑨-⑩-|
⑧②①⑦ |----|
54
①⑦⑧② |①②③④|
③□□④ |⑤⑥⑦⑧|
⑤□□⑥ |⑨⑩⑪⑫|
□□□□ |⑬⑭⑮⑯|
□□□□
⑬⑨⑩⑭
⑮⑪⑫⑯
□□□□
55
□⑩⑩□ |①②③④|
⑨③④□ |⑤⑥⑦⑧|
□⑤⑥□ |⑨-⑩-|
①⑦⑧② |----|
56
□□□□ |①②③④|
⑧②①⑦ |⑤⑥⑦⑧|
□④③□ |⑨⑩⑪⑫|
□⑥⑤□ |⑬⑭⑮⑯|
□⑭⑬□
□⑯⑮□
⑩□□⑨
⑫□□⑪
57
④⑩⑩③ |①②③④|
⑥□⑨⑤ |⑤⑥⑦⑧|
⑧②①⑦ |⑨-⑩-|
□□□□ |----|
58
⑬⑫⑪⑩ |①---|
⑨⑧⑦⑥ |②③④⑤|
⑤④③② |⑥⑦⑧⑨|
□①①□ |⑩⑪⑫⑬|
59
④⑤⑥⑦ |①---|
□③③□ |②---|
□②②□ |③---|
□□□① |④⑤⑥⑦|
最終更新:2026年05月27日 00:34