MEGALOVANIA / Toby Fox
BPM:240
Notes:888
1
□①∨□ |①---|
①++< |----|
++① |②---|
□∧①□ |----|
□②□□
②□□□
□□□②
□□②□
2
□□□□ |----|
□□□□ |----|
□□□□ |----|
□□□□ |----|
3
□∨①□ |①---|
①++< |----|
++① |②---|
□①∧□ |----|
□□②□
②□□□
□□□②
□②□□
4
□□□□ |----|
□□□□ |----|
□□□□ |----|
□□□□ |----|
5
□①∨□ |①---|
①++< |----|
++① |②---|
□∧①□ |----|
□②□□
②□□□
□□□②
□□②□
6
□□□□ |----|
□□□□ |----|
□□□□ |----|
□□□□ |----|
7
□□□□ |①---|
①><① |----|
①><① |②---|
□□□□ |----|
□□□□
②□□②
②□□②
□□□□
8
□□□□ |----|
□□□□ |----|
□□□□ |----|
□□□□ |----|
9
①□⑤□ |①---|
□□□④ |②---|
③□⑤□ |③-④-|
②□□④ |--⑤-|
10
□□□□ |--①-|
②①③□ |--②-|
□④□□ |--③-|
②①□□ |④---|
11
□⑤□① |①---|
④□□□ |②---|
□⑤□③ |③-④-|
④□□② |--⑤-|
12
□□□□ |--①-|
□③①② |--②-|
□□④□ |--③-|
□□①② |④---|
13
①□⑤□ |①---|
□□□④ |②---|
③□⑤□ |③-④-|
②□□④ |--⑤-|
14
□□□□ |--①-|
②①③□ |--②-|
□④□□ |--③-|
②①□□ |④---|
15
□□□① |①---|
□□□④ |②---|
③⑤□□ |③-④-|
□□⑤② |--⑤-|
16
④②□⑤ |--①-|
□①②□ |--②-|
□□①③ |--③-|
□□□□ |④-⑤-|
17
□④③□ |①-②-|
□⑤□③ |③---|
②②④⑤ |④---|
①①⑤□ |--⑤-|
18
⑤□②④ |--①-|
①□①② |--②-|
③②□□ |--③-|
①□□□ |④-⑤-|
19
□③④□ |①-②-|
③□⑤□ |③---|
⑤④②② |④---|
□⑤①① |--⑤-|
20
④②□⑤ |--①-|
②①□① |--②-|
□□②③ |--③-|
□□□① |④-⑤-|
21
□④③□ |①-②-|
□⑤□③ |③---|
②②④⑤ |④---|
①①⑤□ |--⑤-|
22
⑤□②④ |--①-|
①□①② |--②-|
③②□□ |--③-|
①□□□ |④-⑤-|
23
□③□□ |①-②-|
③⑤④□ |③---|
□④②② |④---|
□□①① |--⑤-|
24
③□①⑤ |①---|
□□④③ |②-③-|
⑤□□□ |--④-|
①②□□ |⑤---|
25
□③④□ |①-②-|
③□⑤□ |③---|
⑤④②② |④---|
□⑤①① |--⑤-|
26
④②□⑤ |--①-|
②①□① |--②-|
□□②③ |--③-|
□□□① |④-⑤-|
27
□④③□ |①-②-|
□⑤□③ |③---|
②②④⑤ |④---|
①①⑤□ |--⑤-|
28
⑤□②④ |--①-|
①□①② |--②-|
③②□□ |--③-|
①□□□ |④-⑤-|
29
□③④□ |①-②-|
③□⑤□ |③---|
⑤④②② |④---|
□⑤①① |--⑤-|
30
④②□⑤ |--①-|
②①□① |--②-|
□□②③ |--③-|
□□□① |④-⑤-|
31
□□□□ |①-②-|
④□②④ |③---|
□□□□ |④---|
□①□③ |----|
32
①②①② |①---|
□①②□ |--②-|
③①②③ |----|
①②①② |③---|
33
⑤□□④ |①---|
①□□① |②-③-|
□③□□ |--④-|
②⑤□□ |--⑤-|
34
□□□□ |--①-|
□①□□ |--②-|
□□②∨ |--③-|
③□①② |④---|
□□□□
□□□□
④④□□
□□□④
35
②□□□ |①---|
①③□① |②-③-|
□□□④ |--④-|
□□□□ |--⑤-|
――⑤
□□□□
□□□□
□□⑤□
36
⑥□⑥① |--①②|
□□□□ |③-④-|
①②③□ |⑤-⑥-|
④⑤□⑤ |----|
37
□②□④ |①---|
①□③① |②-③-|
⑤□□□ |--④-|
⑤□□□ |--⑤-|
38
□□②□ |--①-|
□①□③ |--②-|
――③ |--③-|
□①②□ |----|
39
□①□② |①---|
①□②□ |②---|
③□⑥① |③-④-|
□④□⑤ |⑤-⑥-|
40
③⑤③⑤ |①---|
□①□① |②-③-|
□②□□ |--④-|
□□④□ |⑤---|
41
④□□⑤ |①---|
□□□□ |②-③-|
①□③① |--④-|
□□⑤② |--⑤-|
42
□□□□ |--①-|
□□①□ |--②-|
∨②□□ |--③-|
②①□③ |④---|
□□□□
□□□□
□□④④
④□□□
43
⑤□□② |①---|
①□③① |②-③-|
④□□□ |--④-|
□⑤□□ |--⑤-|
44
□□□② |--①-|
□③④□ |--②-|
□①①□ |--③-|
□□②□ |④---|
45
①①②□ |①-②-|
③⑦□④ |③-④-|
⑦⑤⑥□ |⑤-⑥-|
⑤③□⑧ |⑦-⑧-|
46
□②③⑤ |①-②-|
④□③⑤ |③-④-|
□⑥⑦① |⑤-⑥-|
⑧⑦①□ |⑦-⑧-|
47
□□□□ |①---|
□□□□ |②-③-|
□□□∨ |④-⑤-|
□□□① |--⑥-|
②□□⑤
□③④□
□□□□
□□□②
∨□□□
|□□□
⑥□□□
□□□□
48
□①①□ |①---|
□□□□ |②-③-|
④②⑤⑥ |④-⑤-|
□③③⑥ |⑥---|
49
□□□□ |①-②-|
――① |③-④-|
□□□□ |⑤-⑥-|
□□□□ |⑦-⑧-|
□③□□
□|□②
□|□□
□∧□□
□④∨□
□□|□
□□|□
□□⑤□
□□□□
□□□□
⑦――<
□□⑥□
□□□□
□□□□
⑧□□□
□□□□
50
□□⑤① |①-②-|
⑧□②⑦ |③-④-|
□④□□ |⑤-⑥-|
③⑥□□ |⑦-⑧-|
51
④>―⑥ |①②③④|
□③⑥< |⑤---|
⑥②⑤ |⑥---|
⑥―<① |----|
52
②□□① |----|
□③①□ |①---|
□①③□ |--②-|
①□□② |--③-|
53
⑥⑦①□ |①---|
□□⑤④ |②-③-|
②③□□ |④-⑤-|
□①□□ |⑥-⑦-|
54
□□□□ |①---|
□④□□ |②---|
④③②① |③---|
③②①□ |④---|
55
□①①□ |①---|
①□②① |②---|
□⑤④□ |③-④-|
□③⑥□ |⑤-⑥-|
56
①⑤⑤③ |①---|
□①③□ |②-③-|
①□□③ |--④-|
②□□④ |⑤---|
57
④□□④ |①---|
①□□② |②---|
□③③□ |③---|
□②①□ |④---|
58
□□□□ |①---|
□□□□ |②---|
□□□□ |③---|
――① |④---|
□□□□
□②□□
③――<
□□□②
□□□□
□□□□
④□□□
□□④□
59
□□□□ |①---|
――① |②---|
□□□□ |③---|
□□□□ |④---|
□□□□
□□□②
□②□□
③――<
□□□□
□④□□
□□□□
④□□□
60
□□□□ |①---|
□□□□ |②---|
――① |③---|
□□□□ |④---|
□□□□
③――<
□□□②
□□②□
□□□□
④□□□
□④□□
□□□□
61
――① |①---|
□□□□ |----|
□□□□ |----|
①――< |②---|
□□□②
□□□□
□□□□
②□□□
62
①□⑤□ |①-②-|
□②□④ |③-④-|
⑥□③□ |⑤-⑥-|
□⑦□⑧ |⑦-⑧-|
63
□①□□ |①---|
①+<□ |----|
□∧□□ |----|
□□□□ |②---|
□②□□
②□□□
□□□□
□□□□
64
③□□③ |①---|
□④□□ |②-③-|
①□②① |--④-|
⑤□□⑤ |⑤---|
65
□□□□ |①-②-|
①――< |③-④-|
□□□□ |⑤-⑥-|
□□□□ |⑦-⑧-|
□□③□
②□|□
□□|□
□□∧□
□∨④□
□|□□
□|□□
□⑤□□
□□□□
□□□□
――⑦
□⑥□□
□□□□
□□□□
□□□⑧
□□□□
66
①⑤□□ |①-②-|
⑦②□⑧ |③-④-|
□□④□ |⑤-⑥-|
□□⑥③ |⑦-⑧-|
67
⑥―<④ |①②③④|
⑥③□ |⑤---|
⑤②⑥< |⑥---|
①>―⑥ |----|
68
①□□② |----|
□①③□ |①---|
□③①□ |--②-|
②□□① |--③-|
69
□①⑦⑥ |①---|
④⑤□□ |②-③-|
□□③② |④-⑤-|
□□①□ |⑥-⑦-|
70
□□□□ |①---|
□□④□ |②---|
①②③④ |③---|
□①②③ |④---|
71
□①①□ |①---|
①②□① |②---|
□④⑤□ |③-④-|
□⑥③□ |⑤-⑥-|
72
③⑤⑤① |①---|
□③①□ |②-③-|
③□□① |--④-|
④□□② |⑤---|
73
④□□④ |①---|
②□□① |②---|
□③③□ |③---|
□①②□ |④---|
74
□□□□ |①---|
□□□□ |②---|
□□□□ |③---|
①――< |④---|
□□□□
□□②□
――③
②□□□
□□□□
□□□□
□□□④
□④□□
75
□□□□ |①---|
①――< |②---|
□□□□ |③---|
□□□□ |④---|
□□□□
②□□□
□□②□
――③
□□□□
□□④□
□□□□
□□□④
76
□□□□ |①---|
□□□□ |②---|
①――< |③---|
□□□□ |④---|
□□□□
――③
②□□□
□②□□
□□□□
□□□④
□□④□
□□□□
77
①――< |①---|
□□□□ |----|
□□□□ |----|
――① |②---|
②□□□
□□□□
□□□□
□□□②
78
□⑤□① |①-②-|
④□②□ |③-④-|
□③□⑥ |⑤-⑥-|
⑧□⑦□ |⑦-⑧-|
79
□□①□ |①---|
□>+① |----|
□□∧□ |----|
□□□□ |②---|
□□②□
□□□②
□□□□
□□□□
80
①□□③ |①---|
□①③□ |②-③-|
①⑤⑤③ |--④-|
②□□④ |⑤---|
81
□□□③ |①---|
①――< |②---|
□□□□ |③---|
□②④□ |④---|
82
④□③□ |①---|
③□|① |②---|
□□|□ |③---|
□□∧② |④---|
83
□□①□ |①---|
□②□□ |②---|
――① |③---|
④□③□ |④---|
84
□∨②□ |①---|
③|□□ |②---|
□|④① |③---|
□①□□ |④---|
85
□□③④ |①---|
□②□□ |②---|
□□□□ |③---|
――① |④---|
□□□□
□□□□
□□□□
□①□□
86
□□□□ |①---|
□□①□ |②---|
③②□□ |③---|
□□□③ |----|
87
□□②① |①---|
□□②① |----|
□□②① |②---|
①②□□ |----|
88
②①□□ |①---|
②①□□ |----|
②①□□ |②---|
□□①② |----|
89
□⑤③□ |①-②-|
⑤④□③ |③---|
□②④□ |④---|
□①□□ |--⑤-|
90
□□□□ |--①-|
□⑤①□ |--②-|
□②□① |--③-|
②④□③ |④-⑤-|
91
□③⑤□ |①-②-|
③□④⑤ |③---|
□④②□ |④---|
□□①□ |--⑤-|
92
□□□□ |--①-|
□①⑤□ |--②-|
①□②□ |--③-|
③□④② |④-⑤-|
93
②①②① |----|
□③□□ |①---|
②①②① |②---|
□□③□ |--③-|
94
⑤□④② |--①-|
□□①② |--②-|
□③□② |--③-|
□①□□ |④-⑤-|
95
□□□□ |----|
①②①② |①---|
□□③□ |②---|
①②①② |--③-|
96
①②⑤① |①---|
⑤④④⑤ |②-③-|
③⑤□③ |--④-|
□□□□ |⑤---|
97
⑤⑤⑤⑤ |①---|
□□□□ |②---|
③□②④ |③-④-|
①①①① |--⑤-|
98
□□□□ |--①-|
□①□② |--②-|
□□③□ |③-④-|
□④□⑤ |⑤---|
99
①□④⑤ |①---|
①□□⑤ |②---|
①③□⑤ |③-④-|
①□②⑤ |--⑤-|
100
③□□□ |--①-|
□④②□ |--②-|
⑤□□□ |③-④-|
□①□□ |⑤---|
101
□□∨□ |①---|
□□|□ |②---|
□□|□ |③-④-|
□□①□ |⑤-⑥-|
□□□②
③――<
□□□□
④□②□
□□□□
⑤□□□
――⑥
□□□□
102
□②①□ |--①-|
□|□□ |--②-|
□|□① |③-④-|
□∧□③ |⑤---|
□④□□
□□□④
⑤□□□
□□□□
103
□□∨□ |①---|
□□|□ |②---|
□□|□ |③-④-|
□□①□ |⑤-⑥-|
□□□②
③――<
□□□□
④□②□
□□□□
⑤□□□
――⑥
□□□□
104
□②①③ |--①-|
□|□□ |--②-|
□|□① |③-④-|
□∧□□ |⑤---|
□④□□
□□□④
⑤□□□
□□□□
105
⑤⑤⑤⑤ |①---|
□③②□ |②---|
□□④□ |③-④-|
①①①① |--⑤-|
106
□□□□ |--①-|
□□□② |--②-|
□①□□ |③-④-|
⑤③④⑤ |⑤---|
107
①①①□ |①---|
①□④⑤ |②---|
①③②⑤ |③-④-|
□⑤⑤⑤ |--⑤-|
108
⑤④③⑤ |--①-|
□①□□ |--②-|
□□□□ |③-④-|
②□□□ |⑤---|
109
□□□□ |①-②-|
□□□□ |③-④-|
①――< |⑤-⑥-|
□□□□ |⑦-⑧-|
□□□□
③――<
②□□□
□□□□
□□∨□
④□|□
□□|□
□□⑤□
□∨□□
□|□□
□|□□
□⑦⑥□
□□□□
□□□□
□□□□
□⑧□□
110
□□□□ |①-②-|
――① |③-④-|
□□□□ |⑤-⑥-|
□□□□ |⑦-⑧-|
□□□□
□□□②
――③
□□□□
□⑤□□
□|□□
□|□④
□∧□□
□⑥⑦□
□□|□
□□|□
□□∧□
□□⑧□
□□□□
□□□□
□□□□
111
□□□□ |①-②-|
□□□□ |③-④-|
①――< |⑤-⑥-|
□□□□ |⑦-⑧-|
□□□□
③――<
②□□□
□□□□
□□∨□
④□|□
□□|□
□□⑤□
□∨□□
□|□□
□|□□
□⑦⑥□
□□□□
□□□□
□□□□
□⑧□□
112
□□□□ |①-②-|
――① |③-④-|
□□□□ |⑤-⑥-|
□□□□ |⑦-⑧-|
□□□□
□□□②
――③
□□□□
□⑤□□
□|□□
□|□④
□∧□□
□⑥⑦□
□□|□
□□|□
□□∧□
□□⑧□
□□□□
□□□□
□□□□
113
⑤□□③ |①-②-|
□□□□ |③---|
②□□④ |④---|
①□□□ |--⑤-|
114
□⑤□□ |--①-|
□①④□ |--②-|
□③②□ |--③-|
□□□□ |④-⑤-|
115
③□□⑤ |①-②-|
□□□□ |③---|
④□□② |④---|
□□□① |--⑤-|
116
□□⑤□ |--①-|
□④①□ |--②-|
□②③□ |--③-|
□□□□ |④-⑤-|
117
⑤□□③ |①-②-|
□□□□ |③---|
②□□④ |④---|
①□□□ |--⑤-|
118
□⑤□□ |--①-|
□①④□ |--②-|
□③②□ |--③-|
□□□□ |④-⑤-|
119
□□⑤④ |①-②-|
□□□□ |③---|
③□□② |④---|
□□□① |--⑤-|
120
②①□□ |--①-|
③□□□ |--②-|
④□□□ |--③-|
⑤⑤□□ |④-⑤-|
最終更新:2026年05月27日 00:35