アットウィキロゴ
BPM:155
1
□□□□ |①---|
□④②□ |②---|
□□□□ |③---|
①□□③ |④---|
2
□□□□ |①---|
□④②□ |②---|
□□□□ |③---|
①□□③ |④---|
3
④□□② |①---|
□□□□ |②---|
□□□□ |③---|
①□□③ |④---|
4
④□④② |①---|
④□④□ |②---|
□④□③ |③---|
①□□□ |④---|
5
⑦□⑧③ |①-②-|
⑦□□③ |③-④-|
□□⑥□ |⑤--⑥|
①④②⑤ |⑦-⑧-|
6
⑧□□④ |①②-③|
⑧③⑨④ |④-⑤-|
□⑦□② |⑥-⑦-|
①⑤□⑥ |⑧-⑨-|
7
⑦□□③ |①-②-|
⑦□⑧③ |③-④-|
□⑨⑥□ |⑤-⑥-|
①④②⑤ |⑦⑧⑨-|
8
⑧④②③ |①-②-|
⑧□⑨③ |③-④-|
□⑦⑥□ |⑤-⑥⑦|
①□□⑤ |⑧-⑨-|
9
⑦□⑧③ |①-②-|
⑦□□③ |③-④-|
□□⑥□ |⑤--⑥|
①④②⑤ |⑦-⑧-|
10
⑧□□④ |①②-③|
⑧③⑨④ |④-⑤-|
□⑦□② |⑥-⑦-|
①⑤□⑥ |⑧-⑨-|
11
⑦□□③ |①-②-|
⑦□⑧③ |③-④-|
□⑨⑥□ |⑤-⑥-|
①④②⑤ |⑦⑧⑨-|
12
□②④③ |①-②-|
⑧⑧⑧③ |③-④-|
□⑦⑥□ |⑤-⑥⑦|
①□□⑤ |⑧---|
13
⑨□⑩② |①-②-|
⑥□⑧⑦ |③-④⑤|
③□④⑤ |⑥⑦⑧-|
①①①□ |⑨-⑩-|
14
⑪□⑫⑥ |①②③④|
⑦⑧⑨⑩ |⑤-⑥-|
⑤□□□ |⑦⑧⑨⑩|
①②③④ |⑪-⑫-|
15
⑨⑩⑪② |①-②-|
⑥□⑧⑦ |③-④⑤|
③□④⑤ |⑥⑦⑧-|
①□□□ |⑨⑩⑪-|
16
⑧□⑨② |①-②-|
⑤⑦□④ |③-④-|
③□⑥□ |⑤-⑥⑦|
①□□□ |⑧-⑨-|
17
⑨□⑩② |①-②-|
⑥□⑧⑦ |③-④⑤|
③□④⑤ |⑥⑦⑧-|
①□□□ |⑨-⑩-|
18
⑪□⑫⑥ |①②③④|
⑦⑧⑨⑩ |⑤-⑥-|
⑤□□□ |⑦⑧⑨⑩|
①②③④ |⑪-⑫-|
19
⑨⑩⑪② |①-②-|
⑥□⑧⑦ |③-④⑤|
③□④⑤ |⑥⑦⑧-|
①□□□ |⑨⑩⑪-|
20
⑧□⑨② |①-②-|
⑤⑦□④ |③-④-|
③□⑥□ |⑤-⑥⑦|
①□□□ |⑧-⑨-|
21
□③□③ |①---|
□□⑤□ |②-③-|
⑥□□□ |④---|
①②④⑤ |⑤-⑥-|
22
③□③□ |①---|
□⑤□□ |②-③-|
□□⑥□ |④---|
①②④⑤ |⑤-⑥-|
23
□③□□ |①---|
□□⑥③ |②-③-|
□⑤□□ |④---|
①②④⑤ |⑤-⑥-|
24
③□□□ |①---|
①④⑤□ |②---|
⑥□□□ |③-④-|
①②③⑤ |⑤-⑥-|
25
⑧□□⑤ |①-②-|
④□□① |③-④-|
□⑥⑦□ |⑤-⑥-|
□②③□ |⑦-⑧-|
26
□②③□ |①-②-|
□⑥⑦□ |③-④-|
④□□① |⑤-⑥-|
⑧□□⑤ |⑦-⑧-|
27
⑭⑩①⑪ |①②③④|
④⑥⑮⑦ |⑤⑥⑦⑧|
⑧⑯⑤③ |⑨⑩⑪⑫|
⑫②⑨⑬ |⑬⑭⑮⑯|
28
□⑧①⑪ |①②③④⑤⑥|
②⑥□⑦ |⑦⑧⑨⑩⑪⑫|
⑩□⑤③ |⑬---|
⑫④⑨⑬ |⑭---|
⑭□⑭□
⑭□⑭□
□⑭□□
□□□□
29
⑦□⑧③ |①-②-|
⑦□□③ |③-④-|
④□⑥□ |⑤--⑥|
□①②⑤ |⑦-⑧-|
30
⑧□□④ |①②-③|
⑧③⑨④ |④-⑤-|
⑤⑦□② |⑥-⑦-|
□①□⑥ |⑧-⑨-|
31
⑦□□③ |①-②-|
⑦□⑧③ |③-④-|
④⑨⑥□ |⑤-⑥-|
□①②⑤ |⑦⑧⑨-|
32
⑧④②③ |①-②-|
⑧□⑨③ |③-④-|
□⑦⑥□ |⑤-⑥⑦|
□①□⑤ |⑧-⑨-|
33
⑦□⑧③ |①-②-|
⑦□□③ |③-④-|
□□⑥□ |⑤--⑥|
①④②⑤ |⑦-⑧-|
34
⑧□□④ |①②-③|
⑧③⑨④ |④-⑤-|
□⑦□② |⑥-⑦-|
①⑤□⑥ |⑧-⑨-|
35
⑦□□③ |①-②-|
⑦□⑧③ |③-④-|
□⑨⑥□ |⑤-⑥-|
①④②⑤ |⑦⑧⑨-|
36
□②④③ |①-②-|
⑧⑧⑧③ |③-④-|
□⑦⑥□ |⑤-⑥⑦|
①□□⑤ |⑧---|
37
⑨□⑩② |①-②-|
⑥□⑧⑤ |③-④⑤|
③□④⑦ |⑥⑦⑧-|
①①①□ |⑨-⑩-|
38
⑪□⑫⑥ |①②③④|
⑦⑧⑨⑩ |⑤-⑥-|
⑤□□□ |⑦⑧⑨⑩|
①②③④ |⑪-⑫-|
39
⑨⑩⑪② |①-②-|
⑥□⑧⑤ |③-④⑤|
③□④⑦ |⑥⑦⑧-|
①□□□ |⑨⑩⑪-|
40
⑧□⑨② |①-②-|
⑤⑦□④ |③-④-|
③□⑥□ |⑤-⑥⑦|
①□□□ |⑧-⑨-|
41
⑨□⑩② |①-②-|
⑥□⑧⑤ |③-④⑤|
③□④⑦ |⑥⑦⑧-|
①□□□ |⑨-⑩-|
42
⑪□⑫⑥ |①②③④|
⑦⑧⑨⑩ |⑤-⑥-|
⑤□□□ |⑦⑧⑨⑩|
①②③④ |⑪-⑫-|
43
⑨⑩⑪② |①-②-|
⑥□⑧⑤ |③-④⑤|
③□④⑦ |⑥⑦⑧-|
①□□□ |⑨⑩⑪-|
44
⑧□⑨② |①-②-|
⑤⑦□④ |③-④-|
③□⑥□ |⑤-⑥⑦|
①□□□ |⑧-⑨-|
45
④②④② |①---|
□④②□ |②---|
□□□□ |③---|
①□□③ |④---|
46
④②④② |①---|
□□□□ |②---|
□④②□ |③---|
①□□③ |④---|
47
□⑤⑤□ |①---|
□□□□ |②---|
□□□□ |③---|
①②③④ |④-⑤-|
48
□□□□ |①---|
□□⑤□ |②---|
□⑥□□ |③---|
①②③④ |④-⑤⑥|
49
□□□□ |①---|
□□□□ |②---|
□□□□ |③---|
①②③④ |④---|
50
□□□□ |①---|
□⑥□⑤ |②---|
□□□□ |③---|
①②③④ |④-⑤⑥|
50
□□⑤⑤ |①---|
□□□□ |②---|
□②□④ |③---|
①②③④ |④-⑤-|
51
□□⑤□ |①---|
□⑥□□ |②---|
□②□④ |③---|
①②③④ |④-⑤⑥|
52
□□□□ |①---|
□□□□ |②---|
□②□④ |③---|
①②③④ |④---|
53
□⑥□⑤ |①---|
□□□□ |②---|
□②□④ |③---|
①②③④ |④-⑤⑥|
54
□□⑤⑦ |①-②-|
□③□⑥ |③---|
②□□□ |④-⑤-|
①③④⑥ |⑥-⑦-|
55
②④⑥□ |①-②-|
□③⑧⑦ |③-④-|
□⑨□□ |⑤-⑥-|
①③⑤⑦ |⑦-⑧⑨|
56
⑥□④□ |①---|
□②□⑤ |②---|
□□□□ |③-④-|
①②③⑤ |⑤-⑥-|
57
□□④② |①-②-|
□□□□ |③-④-|
□□②④ |⑤-⑥-|
①③□□ |⑦-⑧⑨|
⑥⑧□□
□□□□
⑧⑥⑨□
□□⑤⑦
58
□⑧④□ |①-②-|
□③②⑦ |③-④-|
□⑥□□ |⑤⑥--|
①③⑤⑦ |⑦-⑧-|
59
②⑥④□ |①-②-|
□③⑧⑦ |③-④-|
□⑨□□ |⑤-⑥-|
①③⑤⑦ |⑦-⑧⑨|
60
□□④□ |①---|
④②□⑤ |②---|
⑥□⑥□ |③-④-|
①②③⑤ |⑤-⑥-|
61
⑥②⑥② |①-②-|
④⑧④⑧ |③-④-|
□□⑨□ |⑤-⑥-|
①③⑤⑦ |⑦-⑧⑨|
62
□③□⑥ |①-②-|
□□⑤⑦ |③---|
②□□□ |④-⑤-|
①③④⑥ |⑥-⑦-|
63
□③⑧⑦ |①-②-|
②④⑥□ |③-④-|
□⑨□□ |⑤-⑥-|
①③⑤⑦ |⑦-⑧⑨|
64
⑥②□⑤ |①---|
□□④□ |②---|
□□□□ |③-④-|
①②③⑤ |⑤-⑥-|
65
□②④□ |①-②-|
□□□□ |③-④-|
□④②□ |⑤-⑥-|
①③□□ |⑦-⑧⑨|
⑥□□□
□⑧□⑥
⑧□⑨□
□□⑤⑦
66
□③⑧⑦ |①-②-|
②□④□ |③-④-|
□⑥□□ |⑤⑥--|
①③⑤⑦ |⑦-⑧-|
67
□③□⑦ |①-②-|
②⑥⑧□ |③-④-|
□⑨④□ |⑤-⑥-|
①③⑤⑦ |⑦-⑧⑨|
68
□②④⑤ |①---|
④□□□ |②---|
⑥□⑥□ |③-④-|
①②③⑤ |⑤-⑥-|
69
□②④□ |①-②-|
④□□② |③-④-|
□□□□ |⑤-⑥-|
①③□□ |⑦-⑧⑨|
⑥□□□
□⑧□⑧
□□⑨⑥
□□⑤⑦
70
□□②③ |①-②-|
□□□□ |③-④-|
□□□□ |⑤--⑥|
①④□□ |⑦-⑧-|
⑦□⑧□
□□□□
□□⑥□
□□□⑤
71
⑧□□④ |①②-③|
□③⑨□ |④-⑤-|
□⑦□② |⑥-⑦-|
①⑤□⑥ |⑧-⑨-|
72
⑦□□③ |①-②-|
□□⑧□ |③-④-|
□⑨⑥□ |⑤-⑥-|
①④②⑤ |⑦⑧⑨-|
73
⑧④②③ |①-②-|
□□⑨□ |③-④-|
□⑦⑥□ |⑤-⑥⑦|
①□□⑤ |⑧-⑨-|
74
□□②③ |①-②-|
□□□□ |③-④-|
□□□□ |⑤--⑥|
①④□□ |⑦-⑧-|
⑦□⑧□
□□□□
□□⑥□
□□□⑤
75
⑧□□④ |①②-③|
□③⑨□ |④-⑤-|
□⑦□② |⑥-⑦-|
①⑤□⑥ |⑧-⑨-|
76
⑦□□③ |①-②-|
□□⑧□ |③-④-|
□⑨⑥□ |⑤-⑥-|
①④②⑤ |⑦⑧⑨-|
77
⑧④②③ |①-②-|
□□⑨□ |③-④-|
□⑦⑥□ |⑤-⑥⑦|
①□□⑤ |⑧-⑨-|
78
□□□□ |①---|
①□□① |----|
①□□① |----|
□①①□ |----|
最終更新:2026年05月27日 00:35