.
スカーレット警察のゲットーパトロール24時
七条レタスグループ
BPM:160
Notes:828
1
□④⑤□ |①-②-|
⑥□③⑤ |③-④-|
□②□① |--⑤-|
□□①□ |⑥-⑦-|
□□□□
□□□□
□□□□
□□⑦□
2
□⑤④□ |①-②-|
⑤③□⑥ |③-④-|
①□②□ |--⑤-|
□①□□ |⑥-⑦-|
□□□□
□□□□
□□□□
□⑦□□
3
□④⑤□ |①-②-|
⑥□③⑤ |③-④-|
□②□① |--⑤-|
□□①□ |⑥-⑦-|
□□□□
□□□□
□□□□
□□⑦□
4
②⑥⑤② |①-②-|
⑥④□⑦ |③④⑤-|
□□③□ |--⑥-|
①⑧□① |⑦-⑧-|
5
④④⑤□ |①-②-|
⑥□③⑤ |③-④-|
□②□① |--⑤-|
□□①□ |⑥-⑦-|
□□□□
□□□□
□□□□
□□⑦□
6
□⑤④④ |①-②-|
⑤③□⑥ |③-④-|
①□②□ |--⑤-|
□①□□ |⑥-⑦-|
□□□□
□□□□
⑦□□□
□⑦□□
7
②⑥□□ |①-②-|
□□⑤□ |③④⑤-|
⑥④□① |--⑥-|
□□③□ |⑦-⑧-|
□□⑦□
□□□□
□□⑧⑦
□⑧□□
8
②⑦⑥② |①-②-|
⑨□⑤⑧ |③④⑤-|
⑪④□⑩ |--⑥⑦|
①□③① |⑧⑨⑩⑪|
9
⑤⑦⑦⑤ |①②③④|
⑧□□⑧ |⑤-⑥-|
⑧④③⑧ |⑦--⑧|
②⑥⑥① |----|
10
⑥□⑧① |①-②-|
□②④⑦ |③-④-|
□⑤①□ |⑤-⑥-|
③□□④ |⑦⑧⑨-|
□□□□
□⑨□□
□□□□
□□□□
11
⑥②□① |①-②-|
□□④□ |③-④-|
□⑤①□ |⑤-⑥-|
③□□④ |⑦⑧⑨-|
□□□□
□□□□
⑨□⑦□
□⑧□□
12
□□①□ |①-②-|
□②⑤① |③-④-|
□④□□ |⑤-⑥-|
⑥□③□ |⑦---|
⑦⑦⑦⑦
□□□□
□□□□
□□□□
13
□⑤⑤□ |①②--|
①⑤⑤① |--③④|
②③③② |----|
□④④□ |⑤---|
14
①⑤⑤① |①②--|
③□□③ |--③④|
②⑤⑤② |----|
④□□④ |⑤---|
15
□□□□ |①---|
①②< |②---|
□□□□ |③---|
③④< |④---|
16
□□□□ |①---|
□①①□ |----|
①②②① |----|
□①①□ |②---|
17
②□⑤□ |①-②③|
③⑧⑥⑪ |④-⑤⑥|
④⑨⑦⑫ |⑦-⑧⑨|
①⑩□① |⑩-⑪⑫|
18
□□⑤□ |①-②③|
②⑧⑥□ |④-⑤⑥|
③⑨⑦□ |⑦-⑧⑨|
④⑩□① |⑩-⑪-|
□□□□
□□□⑪
□□□□
□□□⑪
19
③①□② |①---|
①□□④ |②---|
①□□□ |③---|
□□□④ |④-⑤-|
□□□□
⑤□□□
□□□□
⑤□□□
20
□①①□ |①---|
□①□□ |②---|
③①①② |③---|
□①□□ |④---|
□□□□
□□④□
□□□□
□④□□
21
②③⑥⑤ |①-②③|
□④⑦□ |④-⑤⑥|
⑧⑨⑫⑪ |⑦-⑧⑨|
①⑩□① |⑩-⑪⑫|
22
②③⑥⑤ |①-②③|
□④⑦□ |④-⑤⑥|
⑧⑨□□ |⑦-⑧⑨|
□⑩①□ |⑩-⑪-|
□□□□
□□□□
□□⑪⑪
□□⑪⑪
23
①①□② |①-②-|
①①④□ |③-④-|
□⑤⑧□ |⑤-⑥⑦|
③⑧⑥⑦ |--⑧-|
24
□②⑥⑥ |①-②-|
①⑦③□ |③-④-|
⑤□□④ |⑤-⑥-|
⑤⑦□□ |⑦---|
25
②⑧⑤□ |①-②③|
③⑨⑥① |④-⑤⑥|
④□⑦□ |⑦-⑧⑨|
⑦□④① |⑩-⑪⑫|
□□□⑪
□□□⑫
□⑩□□
□□□⑩
26
②⑧⑤⑪ |①-②③|
③⑨⑥⑫ |④-⑤⑥|
④⑩⑦① |⑦-⑧⑨|
⑦①④⑩ |⑩-⑪⑫|
27
②⑧⑤⑪ |①-②③|
③⑨⑥⑫ |④-⑤⑥|
④⑩⑦① |⑦-⑧⑨|
⑦①④⑩ |⑩-⑪⑫|
28
□□⑥□ |①②③④|
⑤□⑦□ |⑤-⑥⑦|
④⑧⑧① |⑧---|
□③②□ |----|
29
②③⑥⑤ |①-②③|
⑦④⑦④ |④-⑤⑥|
⑧⑨□□ |⑦-⑧⑨|
①□□① |⑩-⑪⑫|
□□□□
□□□□
□□⑫⑪
□⑩□⑩
30
②③⑥⑤ |①-②③|
⑦④⑦④ |④-⑤⑥|
⑧⑨□□ |⑦-⑧⑨|
①⑩①⑩ |⑩-⑪-|
□□□□
□□□□
□□□□
⑪□⑪□
31
④□□③ |①②③-|
⑤②□□ |④-⑤-|
⑥□①□ |⑥-⑦-|
⑦⑧⑨□ |⑧-⑨-|
32
□□□□ |①---|
□□□∨ |②③④⑤|
□□□| |⑥⑦⑧⑨|
□□□① |⑩---|
②③④⑤
⑩――<
⑥⑦⑧⑨
□□□②
33
□□□□ |①---|
①□□□ |--②-|
□□□□ |③-④-|
―①□ |⑤-⑥-|
②□□□
□③□□
⑥□④□
□⑤②□
34
□□□① |①---|
②□□| |②---|
□□□| |③---|
□□□∧ |④-⑤-|
□□□③
□□□□
□□③⑤
④□□□
35
①―<□ |①---|
□□□□ |--②-|
□□□□ |③-④-|
□□②□ |--⑤-|
③□④□
□□□∨
③□□|
□□□⑤
36
③⑬⑭④ |--①②|
⑪⑤⑥⑫ |③④⑤⑥|
⑦①②⑧ |⑦⑧⑨⑩|
□⑨⑩① |⑪⑫⑬⑭|
37
□□□□ |①---|
□□□□ |--②-|
□□□□ |③-④-|
①――< |⑤-⑥-|
□□□②
□□③□
□④□⑥
②□⑤□
38
□□□□ |①---|
①□□□ |②---|
|□□□ |③---|
∧②□□ |④-⑤-|
□□③□
③□□□
⑤□□□
□□④□
39
□□□① |①---|
□□□| |--②-|
□□□| |③-④-|
□□□∧ |--⑤-|
□□④②
②□□□
□□□□
⑤―<③
40
⑧⑭⑬⑦ |--①②|
⑫②①⑪ |③④⑤⑥|
④⑩⑨③ |⑦⑧⑨⑩|
①⑥⑤□ |⑪⑫⑬⑭|
41
□□□□ |①---|
□□□□ |--②-|
□□□□ |③-④-|
――① |⑤-⑥-|
□□④□
□③□⑤
②□⑥□
□□□②
42
□∨□② |①---|
□|□□ |②---|
□|□□ |③---|
□①□□ |④-⑤-|
□□□□
③□□□
□□□⑤
④③□□
43
①□□□ |①---|
|□□② |--②-|
∧□□□ |③-④-|
□□□□ |--⑤-|
③□③□
□□□∨
□□□|
□④□⑤
44
③⑬⑭④ |--①②|
⑪⑤⑥⑫ |③④⑤⑥|
⑦①②⑧ |⑦⑧⑨⑩|
□⑨⑩① |⑪⑫⑬⑭|
45
□□□□ |①---|
□□□□ |--②-|
□□□□ |③-④-|
①――< |⑤-⑥-|
□④□②
⑤□③□
□⑥□□
②□□□
46
②□∨□ |①---|
□□|□ |②---|
□□|□ |③---|
□□①□ |④-⑤-|
□□□□
□□□③
□⑤⑤□
④□③④
47
①□□① |①-②-|
⑤②②⑤ |③-④-|
③□□③ |--⑤-|
⑤④④⑤ |--⑥-|
□□⑥□
□⑥□□
□□⑥□
□□□□
48
④□□③ |--①②|
⑧⑭⑬⑦ |③④⑤⑥|
②⑫⑪① |⑦⑧⑨⑩|
⑩⑥⑤⑨ |⑪⑫⑬⑭|
49
②□□② |①-②-|
④⑤⑥③ |--③---|
①□□① |④---⑤-|
④⑤⑥③ |--⑥---|
50
①□⑤① |①-②-|
③⑥□④ |--③---|
②□⑤② |④---⑤-|
③⑥□④ |--⑥---|
51
②⑤□② |①-②-|
④□⑥③ |--③---|
①⑤□① |④---⑤-|
④□⑥③ |--⑥---|
52
①□⑤① |①-②-|
③⑥□④ |--③---|
②□⑤② |④---⑤-|
③⑥□④ |--⑥---|
53
②⑤④① |①-②-|
③□□③ |--③---|
②⑥⑥① |④---⑤-|
⑤□□④ |--⑥---|
54
①④⑤② |①-②-|
③□□③ |--③---|
①⑥⑥② |④---⑤-|
④□□⑤ |--⑥---|
55
②⑤④① |①-②-|
③⑥⑥③ |--③---|
②□□① |④---⑤-|
⑤□□④ |--⑥---|
56
①□④② |①-②-|
③□□③ |--③---|
①⑤⑥② |④---|
□④□□ |⑤-⑥-|
57
②③⑥⑤ |①-②③|
⑦④⑦④ |④-⑤⑥|
⑧⑨□□ |⑦-⑧⑨|
①□□① |⑩-⑪⑫|
□□□□
□□□□
□□⑫⑪
□⑩□⑩
58
②③⑥⑤ |①-②③|
⑦④⑦④ |④-⑤⑥|
⑧⑨⑫⑪ |⑦-⑧⑨|
①⑩①⑩ |⑩-⑪⑫|
59
②③⑥⑤ |①-②③|
⑦④⑦④ |④-⑤⑥|
⑧⑨⑫⑪ |⑦-⑧⑨|
①⑩①⑩ |⑩-⑪⑫|
60
②③⑥⑤ |①-②③|
⑦④⑦④ |④-⑤⑥|
⑧⑨□□ |⑦-⑧⑨|
①⑩①⑩ |⑩-⑪-|
⑪□□□
□□□□
□□□□
□□□□
61
⑤②□④ |①--②|
□③③① |--③-|
□⑥⑥□ |④--⑤|
①④②⑤ |--⑥-|
62
⑥②⑤③ |①--②|
①④④① |--③-|
□□□□ |④--⑤|
②⑥③⑤ |--⑥-|
63
□⑤□④ |①-②-|
②⑦③□ |③-④-|
⑤①①⑥ |⑤-⑥-|
□⑦③□ |⑦-⑧-|
□□□□
□□□□
□□⑧□
□□□□
64
②⑥⑤□ |①-②-|
④□②③ |③-④-|
③□□④ |⑤-⑥-|
①⑤⑥① |⑦-⑧-|
⑧□□⑦
□□□□
□□□□
⑦□□⑧
65
□□□□ |①---|
□①①□ |----|
□①①□ |----|
□□□□ |----|
66
□④□□ |①-②-|
□□③⑤ |③-④-|
⑥②□① |--⑤-|
□□①□ |⑥-⑦-|
□□□□
□□□□
□□□□
□□⑦□
67
⑭③②① |①②③④|
⑥⑤④⑦ |⑤⑥⑦-|
⑭⑧⑨⑩ |⑧⑨⑩⑪|
⑪⑫⑬⑦ |⑫⑬⑭-|
68
□①②⑤ |①-②-|
④②①□ |③④⑤-|
⑧⑦⑥□ |--⑥-|
□□□③ |⑦-⑧-|
69
⑥□□□ |①-②-|
□②④① |③-④-|
□□□⑦ |⑤-⑥-|
⑤③①④ |⑦⑧⑨-|
□□□□
□□□□
□⑨□□
□□⑧□
70
□⑥□① |①-②-|
②□④□ |③-④-|
□□①□ |⑤-⑥-|
③⑤□④ |⑦⑧⑨-|
□□□□
□⑧□□
⑨□⑦□
□□□□
71
①□□① |①-②-|
⑨□③⑧ |③④⑤-|
⑦④□⑥ |⑥-⑦-|
②□⑤② |⑧-⑨-|
72
②□⑤② |①-②-|
⑦④□⑧ |③④⑤-|
□□③⑥ |⑥-⑦-|
①⑨⑨① |⑧-⑨-|
73
□②②□ |---①|
□②□□ |--②-|
①①③③ |--③-|
①□③□ |----|
74
□□□□ |----|
□□□□ |----|
□□□□ |----|
□□□□ |----|
75
①①< |----|
①□□ |----|
□□①< |--①-|
①①< |----|
76
□□□□ |----|
□□□□ |----|
□□□□ |----|
□□□□ |----|
77
□□□□ |----|
□□□□ |----|
□□□□ |----|
□□□□ |----|
78
□①①□ |----|
□①□□ |①---|
□□①□ |----|
□①①□ |----|
最終更新:2026年05月27日 00:36