アットウィキロゴ
Nyan Cat
daniwellP feat. 桃音モモ

BPM:142
Notes:737
1
①□③② |----|
□□□□ |①---|
□□□□ |----|
□□□□ |②-③---|
2
□③□② |----|
□□□□ |----|
□□□□ |①----②|
①□□□ |---③|
3
②③②③ |----|
□②③□ |①---|
②③②③ |②---|
□②③① |③---|
4
⑨□④□ |①②③-|
③⑦⑧⑩ |④-⑤⑥|
⑪⑤⑥□ |⑦⑧⑨⑩|
①□□② |⑪⑫⑬-|
□⑬□□
□□□□
□□□□
□□□⑫
5
⑩⑥□① |①-②③|
□④⑨⑪ |④-⑤-|
⑫⑧③⑤ |⑥⑦⑧⑨|
□②⑦⑬ |⑩⑪⑫⑬|
6
⑥⑦②② |①-②-|
□④⑧□ |③④-⑤|
□□⑤□ |⑥⑦⑧-|
①①③□ |⑨-⑩-|
□□□□
□□□□
⑩□□⑩
⑨□□⑨
7
□⑧⑦⑨ |①-②③|
①⑥□① |④⑤⑥⑦|
□②⑤□ |⑧⑨⑩⑪|
□④③□ |⑫⑬⑭⑮|
□□□□
⑩□⑪□
□⑫□⑬
⑭□⑮□
8
③⑦②⑧ |①-②-|
□⑪⑭④ |③④⑤⑥|
⑤⑬⑫□ |⑦⑧⑨⑩|
⑨①⑩⑥ |⑪⑫⑬⑭|
9
①□□⑧ |①-②③|
⑦□⑨⑥ |④⑤⑥⑦|
③⑩□② |⑧⑨⑩-|
⑤□□④ |⑪-⑫-|
□□□□
□□□□
⑫□□⑪
□□□□
10
②②⑦⑥ |①-②-|
□⑧④□ |③④-⑤|
□⑤□□ |⑥⑦⑧-|
□③①① |⑨-⑩-|
□□□□
□□□□
⑩□□⑩
⑨□□⑨
11
⑨⑦⑧□ |①-②③|
①□⑥① |④⑤⑥⑦|
□⑤②□ |⑧⑨⑩⑪|
□③④□ |⑫⑬⑭⑮|
□□□□
□⑪□⑩
⑬□⑫□
□⑮□⑭
12
⑧②⑦③ |①-②-|
④⑭⑪□ |③④⑤⑥|
□⑫⑬⑤ |⑦⑧⑨⑩|
⑥⑩①⑨ |⑪⑫⑬⑭|
13
⑧□□① |①-②③|
⑥⑨□⑦ |④⑤⑥⑦|
②□⑩③ |⑧⑨⑩-|
④□□⑤ |⑪-⑫-|
□□□□
□□□□
⑪□□⑫
□□□□
14
⑦①①⑧ |①-②③|
□⑬⑭④ |④-⑤⑥|
⑨③⑥⑩ |⑦⑧⑨⑩|
⑤⑪⑫② |⑪⑫⑬⑭|
15
⑪⑦⑧⑫ |①-②-|
⑤⑨⑩④ |③④⑤⑥|
⑬③⑥⑭ |⑦⑧⑨⑩|
①□□② |⑪⑫⑬⑭|
16
⑨□□⑩ |①-②③|
①⑪⑫④ |④-⑤⑥|
⑦③⑥⑧ |⑦⑧⑨⑩|
⑤⑬⑭② |⑪⑫⑬⑭|
17
□②③□ |①-②③|
①⑥⑦□ |④⑤⑥⑦|
⑧□□⑨ |⑧⑨⑩⑪|
④□□⑤ |⑫-⑬-|
⑫□□□
⑩□□⑪
□□□□
□□⑬□
18
⑧①①⑦ |①-②③|
④⑭⑬□ |④-⑤⑥|
⑩⑥③⑨ |⑦⑧⑨⑩|
②⑫⑪⑤ |⑪⑫⑬⑭|
19
⑫⑧⑦⑪ |①-②-|
④⑩⑨⑤ |③④⑤⑥|
⑭⑥③⑬ |⑦⑧⑨⑩|
②□□① |⑪⑫⑬⑭|
20
⑩□□⑨ |①-②③|
④⑫⑪① |④-⑤⑥|
⑧⑥③⑦ |⑦⑧⑨⑩|
②⑭⑬⑤ |⑪⑫⑬⑭|
21
□③②□ |①-②③|
□⑦⑥① |④⑤⑥⑦|
⑨□□⑧ |⑧⑨⑩⑪|
⑤□□④ |⑫-⑬-|
□□□⑫
⑪□□⑩
□□□□
□⑬□□
22
④②②□ |①-②-|
□⑦⑥□ |③④-⑤|
③①①□ |⑥⑦⑧-|
⑧⑨⑨⑤ |⑨-⑩-|
□□□□
□□□□
□⑩⑩□
□□□□
23
⑧⑫⑩② |①-②③|
①⑤⑦① |④⑤⑥⑦|
⑨⑬⑪③ |⑧⑨⑩⑪|
④□□⑥ |⑫⑬⑭⑮|
□□□⑭
□□□□
□□□⑮
□□□□
24
⑩⑤⑦□ |①-②-|
②②③⑪ |③④⑤⑥|
⑥⑨□⑧ |⑦⑧⑨⑩|
①①⑫④ |⑪⑫⑬⑭|
□□□□
⑭□□□
□□□□
□⑬□□
25
⑦□□⑤ |①-②③|
□③④□ |④⑤⑥⑦|
②⑥□⑧ |⑧⑨⑩-|
□⑩⑨① |⑪-⑫-|
□□□□
⑫□□□
□□□□
□□□⑪
26
□②②④ |①-②-|
□⑥⑦□ |③④-⑤|
□①①③ |⑥⑦⑧-|
⑤⑨⑨⑧ |⑨-⑩-|
□□□□
□□□□
□⑩⑩□
□□□□
27
②⑩⑫⑧ |①-②③|
①⑦⑤① |④⑤⑥⑦|
③⑪⑬⑨ |⑧⑨⑩⑪|
⑥□□④ |⑫⑬⑭⑮|
⑭□□□
□□□□
⑮□□□
□□□□
28
□⑦⑤⑩ |①-②-|
⑪③②② |③④⑤⑥|
⑧□⑨⑥ |⑦⑧⑨⑩|
④⑫①① |⑪⑫⑬⑭|
□□□□
□□□⑭
□□□□
□□⑬□
29
⑤□□⑦ |①-②③|
□④③□ |④⑤⑥⑦|
⑧□⑥② |⑧⑨⑩-|
①⑨⑩□ |⑪-⑫-|
□□□□
□□□⑫
□□□□
⑪□□□
30
④①①□ |①-②③|
⑨⑥③⑦ |④-⑤⑥|
⑩⑭⑪⑧ |⑦⑧⑨⑩|
⑤⑬⑫② |⑪⑫⑬⑭|
31
②⑨⑦① |①-②-|
⑤②①④ |③④⑤⑥|
□⑩⑧□ |⑦⑧⑨⑩|
⑥□□③ |⑪⑫⑬⑭|
□□□□
□⑬⑪□
□□□□
□⑭⑫□
32
□⑦④① |①-②③|
③⑧⑩⑥ |④-⑤⑥|
□□⑨□ |⑦⑧⑨⑩|
②□□⑤ |⑪⑫⑬⑭|
□□⑭⑬
□□□□
□□□□
⑪⑫□□
33
④□□⑩ |①-②③|
①⑤⑪□ |④⑤⑥⑦|
⑨⑫⑦② |⑧⑨⑩⑪|
□⑧③⑥ |⑫-⑬-|
□□□□
□□□□
□□□⑬
□□□□
34
□①①④ |①-②③|
⑦③⑥⑨ |④-⑤⑥|
⑧⑪⑭⑩ |⑦⑧⑨⑩|
②⑫⑬⑤ |⑪⑫⑬⑭|
35
①⑦⑨② |①-②-|
④①②⑤ |③④⑤⑥|
□⑧⑩□ |⑦⑧⑨⑩|
③□□⑥ |⑪⑫⑬⑭|
□□□□
□⑪⑬□
□□□□
□⑫⑭□
36
①④⑦□ |①-②③|
⑥⑩⑧③ |④-⑤⑥|
□⑨□□ |⑦⑧⑨⑩|
⑤□□② |⑪⑫⑬⑭|
⑬⑭□□
□□□□
□□□□
□□⑫⑪
37
⑩□□④ |①-②③|
□⑪⑤① |④⑤⑥⑦|
②⑦⑫⑨ |⑧⑨⑩⑪|
⑥③⑧□ |⑫-⑬-|
□□□□
□□□□
⑬□□□
□□□□
38
④②□② |①-②-|
□□⑦⑥ |③④-⑤|
⑧③□□ |⑥⑦⑧-|
⑤①□① |⑨-⑩-|
□□□□
□□□□
□⑩⑩□
□□⑨⑨
39
⑦⑥⑤② |①-②③|
①①⑩⑧ |④⑤⑥⑦|
□□□③ |⑧⑨⑩⑪|
④□⑪⑨ |⑫⑬⑭⑮|
□□□□
⑭⑫□□
□□□□
⑮⑬□□
40
②②⑤③ |①-②-|
⑭⑩⑦⑪ |③④⑤⑥|
④⑥①① |⑦⑧⑨⑩|
⑫⑧⑨⑬ |⑪⑫⑬⑭|
41
⑦⑩①⑧ |①-②③|
⑫⑥⑨□ |④⑤⑥⑦|
②③④⑤ |⑧⑨⑩-|
□□□⑪ |⑪-⑫-|
42
②□②④ |①-②-|
⑥⑦□□ |③④-⑤|
□□③⑧ |⑥⑦⑧-|
①□①⑤ |⑨-⑩-|
□□□□
□□□□
□⑩⑩□
⑨⑨□□
43
②⑤⑥⑦ |①-②③|
⑧⑩①① |④⑤⑥⑦|
③□□□ |⑧⑨⑩⑪|
⑨⑪□④ |⑫⑬⑭⑮|
□□□□
□□⑫⑭
□□□□
□□⑬⑮
44
③⑤②② |①-②-|
⑪⑦⑩⑭ |③④⑤⑥|
①①⑥④ |⑦⑧⑨⑩|
⑬⑨⑧⑫ |⑪⑫⑬⑭|
45
⑧①⑩⑦ |①-②③|
□⑨⑥□ |④⑤⑥⑦|
⑤④③② |⑧⑨⑩-|
⑪□□⑫ |⑪-⑫-|
46
□④□□ |①-②③|
③□□⑥ |④-⑤⑥|
②①①⑤ |⑦⑧⑨⑩|
⑦⑧□⑨ |⑪⑫⑬⑭|
⑬□⑭⑪
⑫□□□
□⑩□□
□□□□
47
□⑥□□ |①-②-|
□①⑧⑦ |③④⑤⑥|
③④⑤② |⑦⑧⑨⑩|
□□□□ |⑪⑫⑬⑭|
□□□□
⑩⑨□□
□□□□
⑪⑫⑬⑭
48
①□④⑨ |①-②③|
⑥□□③ |④-⑤⑥|
⑤⑧⑦② |⑦⑧⑨⑩|
□□□□ |⑪⑫⑬⑭|
⑩□□□
□□□□
□□□⑪
⑫⑬⑭□
49
□①①④ |①-②③|
⑤⑥⑦□ |④⑤⑥⑦|
⑨③□⑧ |⑧⑨⑩⑪|
□□□② |⑫-⑬-|
⑬⑪⑩□
□□□□
□□□□
□□⑫□
50
□□④□ |①-②③|
⑥□□③ |④-⑤⑥|
⑤①①② |⑦⑧⑨⑩|
⑨□⑧⑦ |⑪⑫⑬⑭|
⑪⑭□⑬
□□□⑫
□□⑩□
□□□□
51
□□⑥□ |①-②-|
⑦⑧①□ |③④⑤⑥|
②⑤④③ |⑦⑧⑨⑩|
□□□□ |⑪⑫⑬⑭|
□□□□
□□⑨⑩
□□□□
⑭⑬⑫⑪
52
⑨④□① |①-②③|
③□□⑥ |④-⑤⑥|
②⑦⑧⑤ |⑦⑧⑨⑩|
□□□□ |⑪⑫⑬⑭|
□□□⑩
□□□□
⑪□□□
□⑭⑬⑫
53
④①①□ |①-②③|
⑩⑦⑥⑤ |④⑤⑥⑦|
⑧□③□ |⑧⑨⑩⑪|
②□□⑨ |⑫-⑬-|
⑬□⑪□
□□□□
□□□□
□⑫□□
54
□①□① |①---|
□□①□ |----|
□①□① |----|
□□①□ |----|
最終更新:2026年05月27日 00:37