Big Daddy
USAO
BPM:190
Notes:904
1
□⑤④□ |①---|
□③□□ |②--③|
②③③② |--④-|
□④⑤① |⑤---|
2
①□□① |①---|
□③□② |②-③-|
□□⑤④ |④-⑤-|
□⑦□⑥ |⑥-⑦-|
3
□□□① |①-②-|
⑧④□③ |③-④-|
②⑦⑥⑤ |⑤-⑥-|
□□□⑦ |⑦-⑧-|
4
①③□① |①---|
□□⑤② |②-③-|
□⑦□④ |④-⑤-|
□□□⑥ |⑥-⑦-|
5
□⑥⑥① |①-②-|
②⑥⑥③ |③-④-|
⑤⑥⑥⑤ |⑤---|
□④④□ |⑥---|
6
①⑥□① |①-②-|
④□⑦③ |③-④-|
⑧⑦□⑤ |⑤-⑥-|
②⑤③□ |⑦-⑧-|
7
③□□② |①-②-|
⑤③⑦⑥ |③-④-|
□⑦④□ |⑤-⑥-|
①⑤⑧① |⑦-⑧-|
8
⑦①④① |①-②-|
□③⑥⑤ |③-④-|
□□□② |⑤-⑥-|
⑤□□⑧ |⑦-⑧-|
9
⑬④⑧□ |①②③④|
①⑤⑩⑫ |⑤⑥⑦⑧|
⑪⑨②⑥ |⑨⑩⑪⑫|
□③⑦□ |⑬---|
10
⑨⑦④① |①---|
③□⑩⑥ |②-③④|
□⑤⑧② |⑤-⑥⑦|
①⑧②□ |⑧-⑨⑩|
11
□⑨⑥② |①-②③|
⑤③□⑧ |④-⑤⑥|
①⑦⑩④ |⑦-⑧⑨|
□⑩④□ |⑩---|
12
②⑥□① |①---|
⑧②③⑦ |②-③④|
④⑧□⑨ |⑤-⑥⑦|
①⑩⑤□ |⑧-⑨⑩|
13
④⑧□① |①-②③|
⑩④⑤⑨ |④-⑤⑥|
⑥⑩③□ |⑦-⑧⑨|
②⑫⑦⑪ |⑩-⑪⑫|
14
②□⑤⑤ |①---|
⑦④③□ |②-③④|
⑥⑥②① |⑤-⑥-|
①□⑦□ |⑦---|
15
②□⑤⑤ |①---|
⑦④③□ |②-③④|
⑥⑥②① |⑤-⑥-|
①□⑦□ |⑦---|
16
□⑦⑤⑤ |①---|
□④③② |②-③④|
⑥⑥□⑦ |⑤-⑥-|
①②□① |⑦---|
17
①⑤④□ |①---|
②③③② |②--③|
□□③□ |--④-|
□④⑤□ |⑤---|
18
②④④③ |①---|
□□□□ |②-③-|
①②③① |--④-|
①④④① |--⑤-|
□□□□
⑤□□⑤
□□□|
□□□∧
19
③□□□ |①-②-|
□①②⑥ |③-④-|
⑥⑤④⑧ |⑤-⑥-|
□⑦⑦□ |⑦-⑧-|
20
□①□□ |①-②-|
①②④□ |③-④-|
⑧④⑤⑧ |⑤-⑥-|
③⑦⑦⑥ |⑦-⑧-|
21
④⑥⑤① |①-②-|
⑩⑨⑧⑦ |③-④-|
□③□□ |⑤-⑥-|
②□□□ |⑦⑧⑨⑩|
22
③④④② |①---|
⑤□□⑤ |②-③-|
|③②① |--④-|
∧④④① |--⑤-|
23
□□□③ |①-②-|
⑥②①□ |③-④-|
⑧④⑤⑥ |⑤-⑥-|
□⑦⑦□ |⑦-⑧-|
24
□□①□ |①-②-|
□④②① |③-④-|
⑧⑤④⑧ |⑤-⑥-|
⑥⑦⑦③ |⑦-⑧-|
25
①∨∨① |①---|
□②②□ |②---|
□③③□ |③---|
□∧∧□ |④---|
□□□□
④④④④
□④④□
□□□□
26
□□□∨ |①---|
□□□| |--②-|
□□□| |----|
①①①① |③---|
――②
□□□□
□□□□
□□□②
□□□③
□□□□
③③<
□□□□
27
□□□□ |--①-|
④③②① |②---|
□④④□ |--③-|
□□□□ |④---|
28
∨□□□ |①---|
|□□□ |--②-|
|□□□ |----|
①□□□ |③---|
②――<
□□□□
□□□□
②□□□
③□□□
□□□□
③③<
□□□□
29
□□□□ |--①-|
①②③④ |②---|
□④④□ |--③-|
□□□□ |④---|
30
□□□∨ |①---|
□□□| |--②-|
□□□| |----|
□□□① |③---|
――②
□□□□
□□□□
□□□②
□□□③
□□□□
③③<
□□□□
31
□□□□ |--①-|
④③②① |②---|
□④④□ |--③-|
□□□□ |④---|
32
④④①□ |①-②-|
⑧⑤⑤① |③-④-|
②⑧□⑦ |⑤-⑥-|
⑥②⑦③ |⑦-⑧-|
33
③④②□ |①---|
④□④① |②---|
②④①④ |③---|
□①④③ |④---|
34
⑤④③② |①---|
□①□□ |②---|
□□①□ |③-④-|
□□□□ |⑤---|
35
□□□□ |①-②-|
□①②③ |③---|
⑥⑤④□ |④-⑤-|
□□□□ |⑥---|
36
□⑥⑥□ |①-②-|
□⑤⑤□ |③---|
□④④□ |④-⑤-|
□①②③ |⑥---|
37
②□□① |①②③④|
④□⑪③ |⑤⑥⑦⑧|
⑥⑩□⑤ |⑨-⑩-|
⑧□⑨⑦ |⑪---|
38
□⑦⑥⑤ |①---|
□①□④ |②-③-|
□□①③ |④-⑤-|
□□□② |⑥-⑦-|
39
⑤⑥⑦□ |①---|
④□①□ |②-③-|
③①□□ |④-⑤-|
②□□□ |⑥-⑦-|
40
⑭⑯⑮① |①②③④|
⑫②⑬③ |⑤⑥⑦⑧|
⑩④⑪⑤ |⑨⑩⑪⑫|
⑧⑥⑨⑦ |⑬⑭⑮⑯|
41
□□□① |①---|
□□□| |②---|
□□□| |③---|
□□□∧ |④---|
□□□②
□②□□
□|□□
□∧□□
□□∨□
□③|□
□□③□
□□□□
∨□□□
|□□□
|□④□
④□□□
42
□□□□ |①---|
□□①□ |----|
□①□□ |----|
①□□□ |----|
43
□⑤④□ |①---|
□③□□ |②--③|
②③③② |--④-|
□④⑤① |⑤---|
44
①□□③ |①---|
⑥□②⑤ |②-③-|
□④④⑦ |④-⑤-|
②⑥□① |⑥-⑦-|
45
□①―< |①---|
□□□□ |----|
□□□□ |②---|
―①□ |----|
□②□□
□□□□
□□□□
□□②□
46
□∨∨□ |①---|
□||□ |②---|
□①①□ |----|
□□□□ |----|
□□□□
②□□②
|②②|
∧□□∧
47
□□□□ |----|
□□□□ |----|
□□□□ |----|
□□□□ |----|
48
□□□□ |----|
□□□□ |----|
□□□□ |----|
□□□□ |----|
49
□□□□ |----|
□□□□ |----|
□□□□ |----|
□□□□ |----|
50
□□□□ |①---|
①①①① |----|
□①①□ |----|
□□□□ |----|
51
□□□□ |----|
□□□□ |----|
□□□□ |----|
□□□□ |----|
52
∨□□□ |①--②--③-|
④③②① |-④------|
④③②① |----|
∧□□□ |----|
53
□□②□ |①---|
□□④□ |②---|
□③□□ |--③-|
□□①□ |④---|
54
□□□□ |①---|
③□④③ |②---|
③④②③ |③---|
□①②③ |④---|
55
□②③① |①---|
□□□④ |②---|
④□□□ |③---|
①③②□ |④---|
56
①③④② |①---|
□□□□ |②---|
□□□□ |③---|
①③④② |④---|
57
②□□③ |①---|
④①①□ |②---|
□①①④ |③---|
②□□③ |④---|
58
□②③□ |①---|
□④⑤① |②---|
①⑤④□ |③---|
□②③□ |④-⑤-|
59
①②③□ |①---|
④□□□ |②---|
□□□④ |③---|
□②③① |④---|
60
①□□② |①---|
□④□③ |②---|
③□④□ |③---|
①□□② |④---|
61
②①①③ |①---|
□□④□ |②---|
□④□□ |③---|
②①①③ |④---|
62
⑤③③□ |①---|
①②④③ |②-③-|
①④②③ |--④-|
□①①⑤ |⑤-⑥-|
□□□□
⑥□□□
□□□□
□□⑥□
63
□□③① |①---|
□②⑥⑤ |②-③-|
④⑥②□ |④-⑤-|
□④□□ |⑥---|
64
□②⑥□ |①---|
②③⑦⑥ |②-③-|
④⑤□① |④-⑤-|
□④①□ |⑥-⑦-|
65
⑦③□⑦ |①-②-|
③④⑧□ |③-④-|
□⑥②① |⑤-⑥-|
⑤□①⑤ |⑦-⑧-|
66
□②②⑥ |①---|
□③⑦□ |②-③-|
⑤⑧③④ |④-⑤-|
⑨①①□ |⑥⑦⑧⑨|
67
□□③□ |①---|
□②⑥⑤ |②-③-|
④⑥②□ |④-⑤-|
□④□① |⑥---|
68
□②⑤④ |①-②-|
②③□⑥ |③---|
⑥□③① |④-⑤-|
④⑤①□ |⑥---|
69
□①□⑧ |①-②-|
①□④⑥ |③-④-|
⑦②□③ |⑤-⑥-|
⑤□③□ |⑦-⑧-|
70
⑬④⑧□ |①②③④|
①⑤⑩⑫ |⑤⑥⑦⑧|
⑪⑨②⑥ |⑨⑩⑪⑫|
□③⑦□ |⑬---|
71
□□⑥① |①---|
□□□□ |②-③-|
④③②④ |④-⑤-|
①⑥⑤② |⑥-⑦-|
□□□□
⑦□□⑦
□□□|
□□□∧
72
③□□□ |①-②-|
□①②⑥ |③-④-|
⑥⑤④⑧ |⑤-⑥-|
□⑦⑦□ |⑦-⑧-|
73
□①□□ |①-②-|
①②④□ |③-④-|
⑧④⑤⑧ |⑤-⑥-|
③⑦⑦⑥ |⑦-⑧-|
74
④⑥⑤① |①-②-|
⑩⑨⑧⑦ |③-④-|
□③□□ |⑤-⑥-|
②□□□ |⑦⑧⑨⑩|
75
□③③□ |①---|
□□□□ |②---|
①②③④ |③---|
□①①□ |④---|
76
□③③□ |①---|
②③④□ |②---|
□□□□ |③---|
①①②② |④---|
77
⑥⑦⑧⑤ |①-②-|
⑤□□① |③-④-|
①④③② |⑤-⑥-|
□□□□ |⑦-⑧-|
78
□④⑤□ |①---|
□□③□ |②--③|
②③③② |--④-|
①⑤④□ |⑤---|
79
②⑥⑥① |①---|
②④□③ |②-③-|
④□⑤□ |④-⑤-|
①□□□ |⑥-⑦-|
□□□□
□□□□
□□□□
⑦□□
80
③□□□ |①---|
②□①□ |②---|
□①□□ |③---|
④②②③ |④-⑤-|
□□□□
□□□□
□⑤□□
□□□□
81
□③②① |①-②-|
⑤④⑧② |③-④-|
□□④③ |⑤-⑥-|
⑥⑦⑤□ |⑦-⑧-|
82
②③⑧② |①---|
⑤□□□ |②-③④|
□①□⑥ |⑤⑥⑦⑧|
⑨⑦④□ |⑨---|
83
□⑥⑥② |①---|
③①④② |②-③-|
□⑤①④ |④-⑤-|
□□⑦< |⑥-⑦-|
84
□□□③ |①---|
□①□② |②---|
□□①□ |③---|
③②②④ |④-⑤-|
□□□□
□□□□
□□⑤□
□□□□
85
①②③□ |①-②-|
②⑧④⑤ |③-④-|
③④□□ |⑤-⑥-|
□⑤⑦⑥ |⑦-⑧-|
86
□④⑤□ |①---|
□□③□ |②--③|
②③③② |--④-|
①⑤④□ |⑤---|
87
①□⑥② |①---|
③□④⑥ |②-③-|
□⑤□③ |④-⑤-|
②□□① |⑥-⑦-|
□□□□
□□□□
□□□□
□□⑦<
88
□□□③ |①---|
□①□□ |②---|
□□①② |③---|
③②②④ |④-⑤-|
□□□□
□□□□
□□⑤□
□□□□
89
①②③□ |①-②-|
②⑧④⑤ |③-④-|
③④□□ |⑤-⑥-|
□⑤⑦⑥ |⑦-⑧-|
90
①⑤④① |①---|
⑨⑧□□ |②-③-|
□③②□ |④-⑤-|
□□⑦⑥ |⑥⑦⑧⑨|
91
④⑥⑥① |①---|
□□①③ |②-③-|
②□⑤□ |④-⑤-|
②□□□ |⑥-⑦-|
□□□□
□□□□
□□□□
⑦□□
92
③□□□ |①---|
②□①□ |②---|
□①□□ |③---|
④②②③ |④-⑤-|
□□□□
□□□□
□⑤□□
□□□□
93
□③②① |①-②-|
⑤④⑧② |③-④-|
□□④③ |⑤-⑥-|
⑥⑦⑤□ |⑦-⑧-|
94
①④②□ |①--②|
③⑤□② |--③-|
□②⑤④ |-④--|
⑤□③① |⑤---|
95
①□□□ |①---|
□□①□ |----|
□□□□ |----|
□①□① |----|
最終更新:2026年05月27日 00:38