BPM:188
1
⑥⑧⑦⑨ |①②③④|
①②③④ |⑤-⑥⑦|
⑩⑪⑫⑬ |-⑧⑨-|
□⑤□□ |⑩⑪⑫⑬|
2
□⑤⑥□ |①②-③|
⑦⑧⑨⑩ |④-⑤⑥|
⑪⑫⑬⑭ |⑦⑧⑨⑩|
①③②④ |⑪⑫⑬⑭|
3
□③④□ |①-②-|
□⑤⑥□ |③-④-|
□⑦⑧□ |⑤-⑥-|
□①②□ |⑦-⑧-|
4
⑦③④① |①-②-|
⑥⑤□② |③-④-|
⑥□□□ |⑤---|
⑦□⑤□ |⑥-⑦-|
5
□④③□ |--①-|
□□②⑤ |②-③-|
⑥□①□ |④-⑤-|
□□⑦□ |⑥-⑦-|
6
①④③⑦ |①-②-|
②□⑤⑥ |③-④-|
□□□⑥ |⑤---|
□⑤□⑦ |⑥-⑦-|
7
□③④□ |--①-|
⑤②□□ |②-③-|
□①□⑥ |④-⑤-|
□⑦□□ |⑥-⑦-|
8
①□□□ |①-②-|
□②③④ |③-④-|
□⑤⑥⑦ |⑤-⑥-|
□□□⑧ |⑦-⑧-|
9
③□□□ |①---|
②①□□ |②-③-|
②□□□ |--④-|
③□①□ |⑤-⑥-|
□□□□
□⑥□□
□④⑤□
□□□□
10
□⑤③□ |①②③④|
□□⑦① |⑤⑥⑦⑧|
②⑧□□ |⑨⑩⑪⑫|
□④⑥□ |⑬⑭⑮⑯|
⑫□□⑨
□⑭□⑮
⑯□⑬□
⑩□□⑪
11
□②①□ |①-②-|
⑨□⑧□ |③-④-|
⑦□⑥□ |--⑤-|
⑤③④□ |⑥⑦⑧⑨|
12
⑦③④① |①-②-|
⑥⑤□② |③-④-|
⑥□□□ |⑤---|
⑦□⑤□ |⑥-⑦-|
13
□④③□ |--①-|
□□②⑤ |②-③-|
⑥□①□ |④-⑤-|
□□⑦□ |⑥-⑦-|
14
①④③⑦ |①-②-|
②□⑤⑥ |③-④-|
□□□⑥ |⑤---|
□⑤□⑦ |⑥-⑦-|
15
□③④□ |--①-|
⑤②□□ |②-③-|
□①□⑥ |④-⑤-|
□⑦□□ |⑥-⑦-|
16
①□□□ |①-②-|
□②③④ |③-④-|
□⑤⑥⑦ |⑤-⑥-|
□□□⑧ |⑦-⑧-|
17
③□□□ |①---|
②①□□ |②-③-|
②□□□ |--④-|
③□①□ |⑤-⑥-|
□□□□
□⑥□□
□④⑤□
□□□□
18
□⑥③□ |①②③④|
□□⑦① |⑤⑥⑦⑧|
②⑧□□ |⑨⑩⑪⑫|
□④⑤□ |⑬⑭⑮⑯|
⑫□□⑨
□⑭□⑮
⑯□⑬□
⑩□□⑪
19
□□①□ |①---|
②□□□ |②---|
□□□③ |③---|
④□□□ |④---|
20
□□□□ |①---|
□□□□ |----|
□□□□ |----|
□①①□ |----|
21
□②□② |①---|
□□④③ |②---|
⑥⑤□□ |③-④-|
①□①□ |⑤-⑥-|
22
②□②□ |①---|
□□④□ |②-③④|
□□③□ |-⑤⑥-|
□①□① |⑦-⑧-|
□□□□
□⑥□⑦
□⑤□□
□⑧□□
23
□②□② |①---|
□④□□ |②-③④|
□③□□ |-⑤⑥-|
①□①□ |⑦-⑧-|
□□□□
⑦□⑥□
□□⑤□
□□⑧□
24
②□②□ |①---|
□⑥⑦④ |②-③④|
□⑤⑧③ |-⑤⑥-|
□①□① |⑦-⑧-|
25
□②□② |①---|
□□④③ |②---|
⑥⑤□□ |③-④-|
①□①□ |⑤-⑥-|
26
②□②□ |①---|
□□④□ |②-③④|
□□③□ |-⑤⑥-|
□①□① |⑦-⑧-|
□□□□
□⑥□⑦
□⑤□□
□⑧□□
27
□②□② |①---|
□□□□ |②---|
□□□□ |③-④-|
①□①□ |⑤-⑥-|
③□④□
□□□□
□□□□
⑥□□⑤
28
⑪□⑩□ |①---②③④⑤|
⑥⑦⑧⑨ |----⑥⑦⑧⑨|
②③④⑤ |--⑩-|
□①①⑫ |⑪-⑫-|
29
□②□② |①---|
□□④③ |②---|
⑥⑤□□ |③-④-|
①□①□ |⑤-⑥-|
30
②□②□ |①---|
□□④□ |②-③④|
□□③□ |-⑤⑥-|
□①□① |⑦-⑧-|
□□□□
□⑥□⑦
□⑤□□
□⑧□□
31
□②□② |①---|
□④□□ |②-③④|
□③□□ |-⑤⑥-|
①□①□ |⑦-⑧-|
□□□□
⑦□⑥□
□□⑤□
□□⑧□
32
②□②□ |①---|
□⑥⑦④ |②-③④|
□⑤⑧③ |-⑤⑥-|
□①□① |⑦-⑧-|
33
□②□② |①---|
□□④③ |②---|
⑥⑤□□ |③-④-|
①□①□ |⑤-⑥-|
34
②□②□ |①---|
□□④□ |②-③④|
□□③□ |-⑤⑥-|
□①□① |⑦-⑧-|
□□□□
□⑥□⑦
□⑤□□
□⑧□□
35
⑤②⑥② |①---|
④□□□ |②---|
□□□□ |③-④-|
①□①③ |⑤-⑥-|
36
⑫⑩□⑪ |①---②③④⑤|
⑨⑧⑦⑥ |----⑥⑦⑧⑨|
⑤④③② |--⑩-|
□①①□ |⑪-⑫-|
37
⑫⑩□⑪ |①---②③④⑤|
⑨⑧⑦⑥ |----⑥⑦⑧⑨|
⑤④③② |--⑩-|
□①①□ |⑪-⑫-|
38
⑫⑩□⑪ |①---②③④⑤|
⑨⑧⑦⑥ |----⑥⑦⑧⑨|
⑤④③② |--⑩-|
□①①□ |⑪-⑫-|
39
⑫⑩□⑪ |①---②③④⑤|
⑨⑧⑦⑥ |----⑥⑦⑧⑨|
⑤④③② |--⑩-|
□①①□ |⑪-⑫-|
40
□⑨③□ |①-②-|
④□□⑩ |③④⑤⑥|
⑧⑤⑪② |⑦-⑧-|
⑥①⑦⑫ |⑨⑩⑪⑫|
41
□⑨③□ |①-②-|
④□□⑩ |③④⑤⑥|
⑧⑤⑪② |⑦-⑧-|
⑥①⑦⑫ |⑨⑩⑪⑫|
42
⑤⑮⑧④ |①②③④|
③⑪②⑫ |⑤⑥⑦⑧|
⑬⑦⑯⑥ |⑨⑩⑪⑫|
⑨①⑩⑭ |⑬⑭⑮⑯|
43
⑤⑮⑧④ |①②③④|
③⑪②⑫ |⑤⑥⑦⑧|
⑬⑦⑯⑥ |⑨⑩⑪⑫|
⑨①⑩⑭ |⑬⑭⑮⑯|
44
□□□□ |①---|
□□□□ |----|
□□□□ |----|
□①□□ |----|
45
□□□□ |----|
□②□< |----|
□①□ |①---|
□□□□ |②---|
□□□□
□□□□
□□2□
□□□□
46
□□>① |①---|
②<□□ |----|
□□□□ |②---|
□□□□ |----|
□□□2
□1□□
□□□□
□□□□
47
□□□□ |----|
□□>③ |①---|
□□①< |②---|
□②<□ |③---|
□□□□
1□□□
□□2□
□3□□
48
□□②□ |①---|
③□□□ |②-③-|
①<□□ |④---|
□□□□ |----|
□□□□
□□□□
□>□④
□□□□
□□□□
□□□1
2□□□
□□□□
49
②□□□ |①---|
∧□□□ |②---|
□>③□ |③---|
□□□□ |④---|
□□□□
④<□□
□□□□
□□□□
3□□□
□□□□
□□41
□□□□
50
□②>① |①---|
□□③□ |②-③-|
④□<□ |④---|
□□□□ |----|
□□□2
1□□□
□□□□
□□□□
51
□□□② |①---|
□□□∧ |②---|
□③<□ |③---|
□□□□ |④---|
□□□□
□□>④
□□□□
□□□□
□□□3
□□□□
14□□
□□□□
52
□□□③ |①---|
②□<∧ |②---|
①<□□ |----|
□□□□ |③---|
□□□□
3□□1
2□□□
□□□□
53
⑤>①□ |①---|
□②<□ |②---|
□>③□ |③---|
□□④□ |④-⑤-|
□□21
□3□□
□□4□
□□□□
54
□□>① |①---|
②<□□ |----|
□□□□ |②---|
□□□□ |----|
□□□2
□□□□
□□□□
□□□□
55
□□□□ |----|
□□>③ |①---|
□□①< |②---|
□②<□ |③---|
□□□□
1□□□
□□2□
□3□□
56
□□②□ |①---|
③□□□ |②-③-|
①<□□ |④---|
□□□□ |----|
□□□□
□□□□
□>□④
□□□□
□□□□
□□□1
2□□□
□□□□
57
②□□□ |①---|
∧□□□ |②---|
□>③□ |③---|
□□□□ |④---|
□□□□
④<□□
□□□□
□□□□
3□□□
□□□□
□□41
□□□□
58
□②>① |①---|
□□③□ |②-③-|
④□<□ |④---|
□□□□ |----|
□□□2
1□□□
□□□□
□□□□
59
□□□② |①---|
□□□∧ |②---|
□③<□ |③---|
□□□□ |④---|
□□□□
□□>④
□□□□
□□□□
□□□3
□□□□
14□□
□□□□
60
□□□④ |①---|
②□<∧ |②---|
①<□□ |③---|
□□③□ |④---|
□□□□
4□□1
2□□□
□□□□
61
⑤>①□ |①---|
□②<□ |②---|
□>③□ |③---|
□□④□ |④-⑤-|
□□21
□3□□
□□4□
□□□□
62
□□>① |①---|
③<④□ |②---|
□②□□ |③---|
□□□□ |④---|
□□□3
□□□□
□□□□
□□□□
63
□□□□ |①---|
□□>④ |②---|
□□②< |③---|
□③<① |④---|
□□□□
2□□□
□□3□
□4□□
64
□□②□ |①---|
③□□□ |②-③-|
①<□□ |④---|
□□□□ |⑤---|
□□□□
□□□□
□>□④
□⑤□□
□□□□
□□□1
2□□□
□□□□
65
②□□□ |①---|
∧①□□ |②---|
□>③□ |③---|
□□□□ |④---|
□□□□
④<□□
□□□□
□□□□
3□□□
□□□□
□□41
□□□□
66
□②>① |①---|
□□③□ |②-③-|
□□□□ |④---|
□□□□ |⑤---|
□□⑤□
□□□⑤
④□<□
□□□□
□□□2
1□□□
□□□□
□□□□
67
□□□② |①---|
□□□∧ |②---|
□□□① |③---|
□□①□ |④---|
□□□□
□□>④
□③<□
□□□□
□□□3
□□□□
14□□
□□□□
68
□□□④ |①---|
②□<∧ |②---|
①<③□ |③---|
□□③□ |④---|
□□□□
4□□1
2□□□
□□□□
69
⑤>①□ |①---|
□②<□ |②---|
□>③□ |③---|
□□④□ |④-⑤-|
□□21
□3□□
□□4□
□□□□
70
□□>① |①---|
③<④□ |②---|
□②>① |③---|
③<□□ |④---|
□□□3
□□□□
□□□3
□□□□
71
□□□□ |①---|
□□>④ |②---|
□□②< |③---|
□③<① |④---|
□□□□
2□□□
□□3□
24□□
72
□□②□ |①---|
③□□□ |②-③-|
①<□□ |④---|
□□□□ |⑤-⑥-|
□□□□
□⑥∨□
□>□④
□⑤④□
□□□□
□□□1
2□□□
□□□□
73
②①□□ |①---|
∧□□□ |②---|
□>③□ |③---|
□□□□ |④---|
□□□□
④<□□
□□□□
□□□□
3□□□
□□□□
□□41
□□1□
74
□②>① |①---|
□□③□ |②-③-|
□□□□ |④---|
□□□□ |⑤---|
□□⑤□
□∨□□
④□<□
□④□□
□□□2
1□□□
□□□□
□□□□
75
□□□② |①---|
□□□∧ |②---|
□□□① |③---|
□□□□ |④---|
□□□□
□□>④
□③<□
□□□□
□□□3
□□□□
14□□
□1□□
76
□□□④ |①---|
②□<∧ |②---|
①<③□ |③---|
□□③□ |④---|
□□□□
4□□1
2□□□
□□□□
77
⑤>①□ |①---|
□②<□ |②---|
□>③□ |③---|
□□④□ |④-⑤-|
□□21
□3□□
□□4□
□□□□
78
□⑤□① |①②③④|
②□⑥⑨ |--⑤⑥|
⑦⑩□③ |⑦⑧--|
⑫④⑧⑪ |⑨⑩⑪⑫|
79
①③④② |--①②|
⑤⑥⑦⑧ |③④--|
⑨⑩⑪⑫ |⑤⑥⑦⑧|
□□□□ |⑨⑩⑪⑫|
80
①②③④ |①-②-|
□□□□ |③-④-|
□□□□ |⑤-⑥-|
⑧⑦⑥⑤ |⑦-⑧-|
81
①②③□ |①-②-|
□□④□ |③-④-|
□④□④ |--⑤-|
□□□□ |⑥-⑦-|
⑦□□□
□□□□
□□⑥□
□⑤□□
82
⑦③④① |①-②-|
⑥⑤□② |③-④-|
⑥□□□ |⑤---|
⑦□⑤□ |⑥-⑦-|
83
□④③□ |--①-|
□□②⑤ |②-③-|
⑥□①□ |④-⑤-|
□□⑦□ |⑥-⑦-|
84
①④③⑦ |①-②-|
②□⑤⑥ |③-④-|
□□□⑥ |⑤---|
□⑤□⑦ |⑥-⑦-|
85
□③④□ |--①-|
⑤②□□ |②-③-|
□①□⑥ |④-⑤-|
□⑦□□ |⑥-⑦-|
86
①□□□ |①-②-|
□②③④ |③-④-|
□⑤⑥⑦ |⑤-⑥-|
□□□⑧ |⑦-⑧-|
87
③□□□ |①---|
②①□□ |②-③-|
②□□□ |--④-|
③□①□ |⑤-⑥-|
□□□□
□⑥□□
□④⑤□
□□□□
88
□⑥③□ |①②③④|
□□⑦① |⑤⑥⑦⑧|
②⑧□□ |⑨⑩⑪⑫|
□④⑤□ |⑬⑭⑮⑯|
⑫□□⑨
□⑭□⑮
⑯□⑬□
⑩□□⑪
89
□②①□ |①-②-|
⑨□⑧□ |③-④-|
⑦□⑥□ |--⑤-|
⑤③④□ |⑥⑦⑧⑨|
90
□②①□ |①-②-|
⑨□⑧□ |③-④-|
⑦□⑥□ |--⑤-|
⑤③④□ |⑥⑦⑧⑨|
91
⑯②⑮① |①②③④|
⑭④⑬③ |⑤⑥⑦⑧|
⑫⑥⑪⑤ |⑨⑩⑪⑫|
⑩⑧⑨⑦ |⑬⑭⑮⑯|
92
□④□④ |①---|
□①□① |②-③-|
□③□② |④---|
□③□② |----|
最終更新:2026年09月21日 14:16