BPM:140
1
□①④□ |①--②|
③②⑤⑥ |--③-|
□⑥③□ |④--⑤|
①□□④ |--⑥-|
2
□①□□ |①--②|
③②□□ |--③-|
□□③□ |④--⑤|
①□□□ |⑥⑦⑧-|
□□④□
□⑧□⑦
□⑥□⑤
□□□④
3
①⑦⑧① |①--②|
⑨⑤⑥⑨ |--③④|
□③④□ |⑤⑥⑦⑧|
□②②□ |--⑨-|
4
⑤⑤⑤⑤ |①--②|
□②③□ |--③-|
④③②④ |④---|
①□□① |⑤---|
5
□□□□ |①---|
②□②□ |②---|
□②□② |③-④-|
①①①□ |⑤---|
□④□③
□□□□
□□□□
□⑤□⑤
6
①⑩②□ |①②③④|
③□④□ |⑤-⑥-|
⑦⑤⑥⑨ |⑦-⑧-|
⑤⑧□⑥ |⑨-⑩-|
7
□□①① |①-②-|
□□②② |③---|
□□□□ |④⑤⑥⑦|
□③③□ |-⑧⑨-|
④⑤⑥⑦
□⑨□⑧
□□□□
□□□□
8
⑦⑧⑨⑩ |①②③④|
□⑫□⑪ |-⑤⑥-|
⑤□⑥□ |⑦⑧⑨⑩|
④③②① |-⑪⑫-|
9
④□□□ |①-②-|
□□②□ |③-④-|
④③□□ |⑤-⑥-|
①①①□ |⑦---|
□□□⑥
□□□□
□□⑤⑥
□⑦⑦□
10
①□②□ |①②③④|
③□④□ |⑤⑥⑦⑧|
□⑤□⑥ |⑨-⑩⑪|
□⑦□⑧ |--⑫-|
□□□⑪
□□□⑩
□⑫□□
□□⑨□
11
①①①□ |①---|
①①□□ |②---|
①□①□ |③---|
□④③② |④---|
12
②□①□ |①②③④|
④□③□ |⑤⑥⑦⑧|
□⑥□⑤ |⑨---|
□⑧□⑦ |⑩---|
⑩⑩⑩⑩
□□□□
□□□□
⑨□⑨□
13
⑥⑥⑫⑫ |①②③④|
⑧①⑦② |-⑤-⑥|
⑩③⑨④ |⑦⑧⑨⑩|
⑤⑤⑪⑪ |-⑪-⑫|
14
□□□□ |①-②③|
□②□③ |-④-⑤|
④□□① |⑥-⑦-|
□□□⑤ |⑧-⑨-|
□⑨□⑨
⑧□⑧□
□⑦□⑦
⑥□⑥□
15
⑤⑧④□ |①-②③|
⑧①⑦① |-④-⑤|
□⑦③⑥ |⑥--⑦|
②□⑥□ |--⑧-|
16
⑧⑧⑧⑧ |①②③④|
□③□① |-⑤-⑥|
④□②⑤ |⑦---|
⑥⑦⑦⑥ |⑧---|
17
⑫⑫⑥⑥ |①②③④|
②⑦①⑧ |-⑤-⑥|
④⑨③⑩ |⑦⑧⑨⑩|
⑪⑪⑤⑤ |-⑪-⑫|
18
□□□□ |①-②③|
③⑤①□ |-④-⑤|
②□□□ |⑥⑦-⑧|
□□④④ |⑨-⑩-|
⑧□□□
□□□⑦
⑩□⑨⑥
□□□□
19
□④⑧□ |①-②③|
①⑦①⑧ |-④-⑤|
⑥③⑦□ |⑥--⑦|
□⑥⑤② |--⑧-|
20
⑤⑪⑪⑥ |①②③④|
□□□□ |-⑤-⑥|
⑩⑨⑧⑦ |⑦⑧⑨⑩|
④③②① |--⑪-|
21
□□□□ |①---|
②□②□ |②---|
□②□② |③-④-|
①①①□ |⑤---|
□④□③
□□□□
□□□□
□⑤□⑤
22
①⑩②□ |①②③④|
③□④□ |⑤-⑥-|
⑦⑤⑥⑨ |⑦-⑧-|
⑤⑧□⑥ |⑨-⑩-|
23
□□①① |①-②-|
□□②② |③---|
□□□□ |④⑤⑥⑦|
□③③□ |-⑧⑨-|
④⑤⑥⑦
□⑨□⑧
□□□□
□□□□
24
⑦⑧⑨⑩ |①②③④|
□⑫□⑪ |-⑤⑥-|
⑤□⑥□ |⑦⑧⑨⑩|
④③②① |-⑪⑫-|
25
□□□□ |①-②-|
□□□□ |③-④-|
③□④② |⑤-⑥-|
①①①□ |⑦---|
□□□□
⑤□□⑥
□□□□
□⑦⑦□
26
①□②□ |①②③④|
③□④□ |⑤⑥⑦⑧|
□⑤□⑥ |⑨-⑩-|
□⑦□⑧ |⑪-⑫-|
□□□⑩
□□□⑪
□⑫□□
□□⑨□
27
①①①□ |①---|
①①□□ |②---|
①□①□ |③---|
□④③② |④---|
28
②□①□ |①②③④|
④□③□ |⑤⑥⑦⑧|
□⑥□⑤ |⑨---|
□⑧□⑦ |⑩---|
⑩⑩⑩⑩
□□□□
□□□□
⑨□⑨□
29
□□□□ |①---|
①①①① |--②-|
□③②□ |----|
③□□② |③---|
30
④④④④ |①--②|
□①②□ |----|
⑤⑤⑤⑤ |③---④-|
③③③③ |--⑤---|
31
□□□□ |①---|
①①①① |--②-|
□□□□ |----|
③③②② |③---|
32
③□⑥□ |①---②-|
⑤①②④ |--③---|
④②①⑤ |④---⑤-|
□⑥□③ |--⑥---|
33
②□□③ |①-②-|
⑤①①⑥ |③--④|
□④④□ |-⑤-⑥|
⑤⑦⑧⑥ |⑦-⑧-|
34
②□□③ |①-②-|
⑤①①⑥ |③--④|
□④④□ |-⑤-⑥|
⑤⑦⑧⑥ |⑦-⑧-|
35
②□□③ |①-②-|
⑤①①⑥ |③--④|
□④④□ |-⑤-⑥|
⑤⑦⑧⑥ |⑦-⑧-|
36
①④④① |①-②-③-|
⑤②②⑤ |④-⑤-⑥-|
③⑥⑥③ |⑦-⑧-⑨-|
□□□□ |⑩---|
⑨□□⑨
□⑩⑩□
□□□□
⑧⑦⑦⑧
37
□①②□ |①---|
□③□□ |②---|
□□④□ |③-④-|
□⑤□□ |⑤---|
38
①□②□ |①②③④|
③□④□ |⑤-⑥-|
⑩⑤⑥⑨ |⑦-⑧-|
□⑦⑧□ |⑨-⑩-|
39
□□①① |①-②-|
□□②② |③---|
□□□□ |④⑤⑥-|
□③③□ |⑦---|
⑦□□⑦
□□□□
□④⑤⑥
□□□□
40
⑦□□⑦ |①-②-|
⑥⑤④□ |③---|
①③③□ |④⑤⑥-|
□□②□ |⑦---|
41
④□□□ |①-②-|
□□□② |③-④-|
□③□□ |⑤-⑥-|
①①①□ |⑦---|
□□□⑥
□□□□
□□⑤□
□⑦⑦□
42
①□②□ |①②③④|
③□④□ |⑤⑥⑦⑧|
□⑤□⑥ |⑨-⑩-|
□⑦□⑧ |⑪-⑫-|
□□⑫□
□□□⑩
⑪□□□
□□⑨□
43
④□□③ |①---|
□①①□ |②---|
□①①□ |③---|
②□□□ |④---|
44
④□□③ |①---|
□□□□ |②---|
□□□□ |③---|
②□□① |④---|
45
⑥⑥⑫⑫ |①②③④|
⑧①⑦② |-⑤-⑥|
⑩③⑨④ |⑦⑧⑨⑩|
⑤⑤⑪⑪ |-⑪-⑫|
46
□□□□ |①-②③|
□②□③ |-④-⑤|
④□□① |⑥-⑦-|
□□□⑤ |⑧-⑨-|
□⑨□⑨
⑧□⑧□
□⑦□⑦
⑥□⑥□
47
②⑥②□ |①---|
⑥①⑤① |②-③-|
③⑤③④ |④--⑤|
□□④□ |--⑥-|
48
⑧⑧⑧⑧ |①②③④|
□③□① |-⑤-⑥|
④□②⑤ |⑦---|
⑥⑦⑦⑥ |⑧---|
49
⑫⑫⑥⑥ |①②③④|
②⑦①⑧ |-⑤-⑥|
④⑨③⑩ |⑦⑧⑨⑩|
⑪⑪⑤⑤ |-⑪-⑫|
50
□□⑤□ |①②③④|
④⑥③□ |⑤-⑥-|
②□①□ |⑦-⑧-|
□□□□ |⑨-⑩-|
⑩□□□
□□□⑦
□□⑨⑦
⑧□⑨□
51
□②⑥② |①---|
①⑤①⑥ |②-③-|
④③⑤③ |④--⑤|
□④□□ |--⑥-|
52
⑧⑧⑧⑧ |①②③④|
□⑤⑥□ |-⑤-⑥|
□⑦⑦□ |⑦---|
④③②① |⑧---|
53
□□□□ |①②③-|
④□④□ |④---|
□④□④ |⑤-⑥-|
①②③□ |⑦---|
□⑥□⑤
□□□□
□□□□
□⑦□⑦
54
①⑩②□ |①②③④|
③□④□ |⑤-⑥-|
⑦⑤⑥⑨ |⑦-⑧-|
⑤⑧□⑥ |⑨-⑩-|
55
□□①① |①-②-|
②□②② |--③-|
③□□③ |④-⑤-|
□③③□ |⑥-⑦-|
④□⑤□
□⑥⑦□
□□□□
□□□□
56
□□□① |①---|
□□□□ |--②-|
□□②□ |③---|
□□①② |④---|
④④④④
□③□□
③□□□
□□□□
57
□□□□ |①-②-|
□□□□ |③-④-|
③□④② |⑤-⑥-|
①①①□ |⑦---|
□□□□
⑤□□⑥
□□□□
□⑦⑦□
58
①□②□ |①②③④|
③□④□ |⑤⑥⑦⑧|
□⑤□⑥ |⑨-⑩-|
□⑦□⑧ |⑪-⑫-|
□□□⑩
□□□⑪
□⑫□□
□□⑨□
59
①①①□ |①-②-|
①①□□ |--③-|
①□①③ |④-⑤-|
③□③② |⑥-⑦-|
□⑤□④
□⑦⑥□
□□□□
□□□□
60
①□□□ |①---|
□□□□ |--②-|
□②□□ |③---|
②①□□ |④---|
④④④④
□□③□
□□□③
□□□□
61
□□□□ |①---②-|
①□□④ |③---|
□⑤②□ |④---⑤-|
③①④⑥ |⑥---|
62
⑦⑦⑦⑦ |①-②-③-|
④①①④ |④-⑤-⑥-|
②⑤⑤② |⑦---|
⑥③③⑥ |----|
最終更新:2026年09月21日 14:19