Cross Fire / Hommarju vs RoughSketch
BPM:180
Notes:867
1
□□□□ |----|
□□□□ |----|
□□□□ |----|
□□□□ |----|
2
□⑦⑥⑤ |①-②③|
①②□① |④-⑤-|
□□□③ |--⑥-|
④⑦⑥⑤ |--⑦-|
3
①□□② |--①-|
①①①□ |----|
①②①② |②---|
□□②□ |----|
4
⑤⑥⑦□ |①-②③|
①□②① |④-⑤-|
③□□□ |--⑥-|
⑤⑥⑦④ |--⑦-|
5
□②□□ |--①-|
②□①① |----|
□②①□ |②---|
②□□□ |----|
6
□⑥③□ |①-②-|
□②⑤□ |③-④-|
①□⑧④ |⑤-⑥-|
□⑦□□ |⑦-⑧-|
7
□□⑦□ |①-②-|
④⑥□① |③-④-|
⑤③□⑧ |⑤-⑥-|
□□②□ |⑦-⑧-|
8
⑬③⑩④ |①②③④|
⑦⑨⑧⑭ |⑤⑥⑦⑧|
⑮⑤②⑫ |⑨⑩⑪⑫|
①⑪⑥⑯ |⑬⑭⑮⑯|
9
□②□③ |①---|
②□③□ |②---|
□②③③ |③---|
①□③□ |----|
10
①⑩□□ |①-②-|
⑥□⑨⑤ |③-④-|
③⑧□④ |⑤-⑥-|
②□⑦□ |⑦⑧⑨⑩|
11
□□⑩① |①-②-|
⑤⑨□⑥ |③-④-|
④□⑧③ |⑤-⑥-|
□⑦□② |⑦⑧⑨⑩|
12
①⑩□□ |①-②-|
⑥□⑨⑤ |③-④-|
③⑧□④ |⑤-⑥-|
②□⑦□ |⑦⑧⑨⑩|
13
⑦⑧⑨① |①-②-|
⑤□□⑥ |③-④-|
④□□③ |⑤-⑥-|
□□□② |⑦-⑧-⑨-⑩--⑪--|
□□□⑩
□□□□
□⑪□□
□□□□
14
□□□□ |①-②-|
⑥□①⑤ |③-④-|
③⑧□④ |⑤-⑥-|
②□⑦□ |⑦⑧⑨⑩|
□⑩□□
□□⑨□
□□□□
□□□□
15
□□⑩① |①-②-|
⑤⑨□⑥ |③-④-|
④□⑧③ |⑤-⑥-|
□⑦□② |⑦⑧⑨⑩|
16
①⑩□□ |①-②-|
⑥□⑨⑤ |③-④-|
③⑧□④ |⑤-⑥-|
②□⑦□ |⑦⑧⑨⑩|
17
②□①③ |①--②|
④⑨□④ |--③-|
⑤⑥⑦⑧ |--④-|
②④④③ |⑤-⑥-⑦-⑧--⑨--|
18
□②①□ |①---|
□□□□ |----|
□□□□ |②---|
□□□□ |----|
19
□□□□ |①---|
□①②□ |----|
□□□□ |②---|
□□□□ |----|
20
□□□□ |①---|
□□□□ |----|
□②①□ |②---|
□□□□ |----|
21
□④③② |①---|
□①□□ |----|
□□□□ |②--③|
□④③② |--④-|
22
②□□□ |①---|
②□□□ |②---|
②③①□ |③---|
②□□□ |----|
23
□□□③ |①---|
□□□□ |----|
□□□□ |②---|
□①②□ |③---|
24
□□□□ |①---|
□②①□ |②---|
③□□④ |③---|
□□□□ |④---|
25
①②③□ |①--②|
□□□□ |--③-|
□□□□ |----|
①②③□ |----|
26
②③④□ |①-②-|
□②③④ |③-④-|
⑤⑥□□ |--⑤-|
①⑤⑥① |⑥-⑦-|
□□□□
□□□□
□□⑦□
□□□⑦
27
□③②① |--①-|
③②①□ |②-③-|
□⑥⑤④ |--④-|
⑥⑤④□ |⑤-⑥-|
28
①②③□ |--①-|
□③②① |②-③-|
④⑤⑥□ |--④-|
□⑥⑤④ |⑤-⑥-|
29
□③②① |--①-|
①②③□ |②-③-|
□⑥⑤④ |--④-|
④⑤⑥□ |⑤-⑥-|
30
②□□④ |①-②-|
①②④③ |③-④-|
⑥□□⑧ |⑤-⑥-|
⑤⑥⑧⑦ |⑦-⑧-|
31
□②④□ |①-②-|
②①③④ |③-④-|
□⑥⑧□ |⑤-⑥-|
⑥⑤⑦⑧ |⑦-⑧-|
32
⑮①⑥② |①②③④|
⑤⑬⑫⑧ |⑤⑥⑦⑧|
③⑪⑯④ |⑨⑩⑪⑫|
⑨⑦⑩⑭ |⑬⑭⑮⑯|
33
□□□□ |①---|
□□□□ |----|
①□□□ |----|
□□□□ |----|
34
①②⑤① |①-②③|
④⑤⑩□ |④-⑤-|
⑥⑧③□ |⑥⑦⑧-|
⑨⑪□⑦ |⑨⑩⑪-|
35
①③□② |①②③④|
⑤⑦⑫⑥ |⑤⑥⑦⑧|
⑨⑩⑩④ |⑨-⑩-|
⑪⑬⑧⑭ |⑪⑫⑬⑭|
36
①②⑤□ |①-②③|
④⑤□⑩ |④-⑤-|
⑥⑧□③ |⑥⑦⑧-|
⑨⑪⑦□ |⑨⑩⑪-|
37
①③⑩④ |①②③④|
⑤⑦⑧⑭ |⑤⑥⑦⑧|
⑨⑪②⑫ |⑨⑩⑪⑫|
⑬⑮⑯⑥ |⑬⑭⑮⑯|
38
①②⑤□ |①-②③|
④⑤□⑩ |④-⑤-|
⑥⑧③□ |⑥⑦⑧-|
⑨⑪□⑦ |⑨⑩⑪-|
39
①③□② |①②③④|
⑤⑦⑥⑫ |⑤⑥⑦⑧|
⑨⑩⑩④ |⑨-⑩-|
⑪⑬⑭⑧ |⑪⑫⑬⑭|
40
①②⑤□ |①-②③|
④⑤⑩□ |④-⑤-|
⑥⑧□③ |⑥⑦⑧-|
⑨⑪□⑦ |⑨⑩⑪-|
41
①⑤□② |①②③④|
③□□④ |⑤-⑥⑦|
⑦⑬⑩⑥ |⑧⑨⑩-|
⑨⑪⑫⑧ |⑪⑫⑬-|
42
②□□① |----|
④⑥⑥③ |----|
□□□⑤ |①②③④|
□□□□ |⑤-⑥-|
43
□⑧⑤⑤ |①②③-|
⑥⑩⑨⑦ |④-⑤-|
④④□□ |⑥⑦⑧⑨|
①②③□ |⑩---|
44
□□④④ |①②③-|
⑥⑦⑧□ |④-⑤-|
⑤⑨⑩⑪ |⑥⑦⑧-|
⑤③②① |⑨⑩⑪-|
45
①②③□ |①②③-|
⑥□□⑤ |④⑤-⑥|
⑧⑨⑩□ |⑦-⑧⑨|
⑥④⑦⑤ |⑩-⑪-|
⑪□□□
□□□□
□□□□
□□□□
46
□④③⑤ |①②③④|
⑩②①⑨ |⑤-⑥-|
⑧⑩□□ |⑦⑧⑨-|
⑥⑥□⑦ |⑩-⑪-|
□□□□
□□⑪□
□□□⑪
□□□□
47
①②③⑤ |①②③-|
□⑨□⑧ |④-⑤-|
□□⑦□ |⑥-⑦⑧|
④⑥⑥⑧ |-⑨⑩⑪|
⑩⑪⑪□
□□□□
⑩□□□
□□□□
48
□□□⑤ |--①-|
①⑦④□ |②③④⑤|
□③⑥① |-⑥⑦-|
②⑩⑨⑧ |⑧⑨⑩-|
49
①②③④ |①---|
②③□□ |②---|
③⑤⑤□ |③-④-|
④⑤⑤□ |⑤---|
50
①□□□ |①---|
□□□□ |----|
□□□□ |----|
□□□① |----|
51
□□□□ |①---|
□□□□ |----|
□①①□ |----|
□□□□ |----|
52
□□①□ |①---|
□②□□ |----|
□□□□ |②---|
□□□□ |----|
53
□□□□ |①---|
□□□□ |----|
□□①□ |----|
□□□□ |----|
54
□□□□ |①---|
□□□□ |----|
□□□□ |----|
①□□① |----|
55
□□□□ |①---|
□□□□ |----|
□①①□ |----|
□□□□ |----|
56
□□□□ |①---|
①□□① |----|
□□□□ |----|
□□□□ |----|
57
□①①□ |①---|
□□□□ |----|
□□□□ |----|
□□□□ |----|
58
□⑧□① |①-②③|
④⑥⑦⑤ |-④-⑤|
□□②① |-⑥⑦⑧|
□③□□ |----|
59
①□⑧□ |①-②③|
⑤⑦⑥④ |-④-⑤|
①②□□ |-⑥⑦⑧|
□□③□ |----|
60
□⑧□① |①-②③|
④⑥⑦⑤ |-④-⑤|
□□②① |-⑥⑦⑧|
□③□□ |----|
61
①□⑧□ |①-②③|
⑤⑦⑥④ |-④-⑤|
①②□□ |-⑥⑦⑧|
□□③□ |----|
62
⑥□□① |①-②③|
④□□⑨ |-④-⑤|
⑥⑦②① |⑥-⑦⑧|
⑩③⑧⑤ |-⑨-⑩|
63
⑥□□① |①-②③|
④□□⑨ |-④-⑤|
⑥⑦②① |⑥-⑦⑧|
⑩③⑧⑤ |-⑨-⑩|
64
⑩⑥⑤□ |①-②-|
②⑨⑧□ |③-④-|
□□①⑦ |⑤-⑥-|
□④□③ |⑦⑧⑨⑩|
65
□③□① |①---|
③□□② |②---|
③③②□ |③---|
③□□② |----|
66
⑪⑦④① |①-②③|
⑤□①⑥ |④⑤-⑥|
⑪□②⑩ |⑦⑧⑨⑩|
⑨③⑫⑧ |⑪-⑫-|
67
⑪⑦④① |①-②③|
⑤⑫①⑥ |④⑤-⑥|
⑪⑫②⑩ |⑦⑧⑨⑩|
⑨③□⑧ |⑪-⑫-|
68
⑪⑦④① |①-②③|
⑤⑪②⑥ |④⑤-⑥|
□⑫①⑩ |⑦⑧⑨⑩|
⑨③⑫⑧ |⑪-⑫-|
69
⑪⑦④① |①-②③|
□⑨②⑥ |④⑤-⑥|
⑤⑪①⑩ |⑦⑧⑨⑩|
□③⑫⑧ |⑪-⑫-|
70
⑪⑦④① |①-②③|
⑤□①⑥ |④⑤-⑥|
⑪□②⑩ |⑦⑧⑨⑩|
⑨③⑫⑧ |⑪-⑫-|
71
⑪⑦④① |①-②③|
⑤□①⑥ |④⑤-⑥|
⑪□②⑩ |⑦⑧⑨⑩|
⑨③⑫⑧ |⑪-⑫-|
72
⑪⑦④① |①-②③|
⑤⑪②⑥ |④⑤-⑥|
□□①⑧ |⑦⑧⑨⑩|
⑨③⑩□ |⑪-⑫-|
□□□□
□□□□
□□⑫□
□□□□
73
□③□② |①--②|
□□①④ |--③-|
□①□□ |----|
④③□② |④---|
74
⑩□⑤□ |①②③④|
⑧④③⑨ |⑤-⑥⑦|
⑥②①⑦ |⑧⑨⑩-|
⑪□□□ |⑪⑫⑬-|
□□□□
□□□□
□⑬⑫□
□□□□
75
□③②① |①-②-|
④□□④ |③---|
④□□④ |④---|
□③②① |----|
76
⑪⑦④① |①-②③|
⑤□①⑥ |④⑤-⑥|
⑪⑬②⑩ |⑦⑧⑨⑩|
⑨③⑫⑧ |⑪-⑫⑬|
77
□④④③ |①-②③|
②□①□ |-④-⑤|
⑥⑧③⑥ |-⑥-⑦|
⑤②⑦⑤ |⑧⑨⑩⑪|
□□□□
□⑩⑨⑪
□□□□
□□□□
78
①⑤④② |①-②-|
①□□□ |③④-⑤|
⑤⑦②⑥ |-⑥⑦⑧|
⑨③⑧⑩ |⑨-⑩-|
79
①⑤⑥② |①②③④|
③⑦⑧④ |⑤⑥⑦⑧|
⑨□□⑩ |⑨⑩⑪⑫|
⑪□□⑫ |----|
80
□⑤④③ |①②③④|
⑧⑨⑩⑪ |⑤-⑥⑦|
⑭⑥①⑮ |⑧⑨⑩⑪|
⑫②⑦⑬ |⑫⑬⑭⑮|
81
①⑥□⑤ |①-②③|
④⑩⑦□ |-④-⑤|
□⑧②□ |-⑥⑦⑧|
□③⑨□ |⑨-⑩-|
82
□□□□ |①---|
□□□□ |----|
□□□□ |----|
①□□① |----|
83
□□□□ |----|
□□□□ |----|
□□□□ |----|
□□□□ |----|
84
②⑫⑬① |①②③④|
⑧⑥⑪⑮ |⑤-⑥-⑦-⑧⑨|
⑨④⑤□ |⑩⑪⑫⑬|
⑩⑭③⑦ |⑭⑮⑯⑰|
⑯□□⑰
□□□□
□□□□
□□□□
85
⑪⑥⑤⑨ |①-②③|
④④□⑦ |--④-|
⑧①③③ |⑤⑥⑦⑧|
⑫□②⑩ |⑨⑩⑪⑫|
86
⑭⑩⑨⑬ |①②③④⑤⑥|
⑧⑥⑤⑪ |⑦⑧⑨⑩|
⑫④③⑦ |⑪⑫⑬⑭|
⑯②①⑮ |⑮⑯⑰⑱|
□□□□
□□□□
□⑱⑰□
□□□□
87
⑩⑧⑦⑨ |①②③④|
⑥④③⑪ |⑤⑥⑦⑧|
⑫⑯⑮⑤ |⑨⑩⑪⑫|
⑭②①⑬ |⑬⑭⑮⑯|
88
□□□□ |①---|
□□□□ |----|
□□□□ |----|
□□①□ |----|
最終更新:2026年09月21日 14:19