BPM:250
1
①③□① |①---|
②□□□ |----|
□□□□ |----|
□□□□ |②-③-|
2
□□□□ |①---|
□②②□ |----|
□□①□ |②---|
□□□□ |----|
3
□□③□ |①---|
□□□② |----|
□□□□ |----|
①□□① |②-③-|
4
②□□② |①---|
□□□□ |----|
□①□□ |②---|
□□□□ |----|
5
□□□□ |①---|
□③□□ |----|
②□□□ |----|
①□□① |②-③-|
6
□□□□ |①---|
□□□□ |----|
□②②□ |②---|
□□①□ |----|
7
①□□① |①---|
□□□□ |----|
□③□□ |----|
□□□② |②-③-|
8
□□□□ |①---|
□□①□ |----|
□□□□ |②---|
□②②□ |----|
9
①①①① |①---|
②□□□ |②---|
③⑤□□ |③---|
④□④□ |④-⑤-|
10
□③③④ |①---|
③①①③ |②---|
□□□② |③---|
□□□① |④---|
11
□④□□ |①---|
□③□⑤ |②---|
□②①④ |③---|
①①□□ |④-⑤-|
12
③□④③ |①---|
①□③□ |②---|
□□②□ |③---|
□□①① |④---|
13
□④⑩□ |①②③-|
□□□⑧ |④-⑤⑥|
⑨⑦⑥⑤ |⑦-⑧-|
①②③□ |⑨-⑩-|
14
④□□⑩ |①②③-|
①②③□ |④-⑤⑥|
□⑨□⑧ |⑦-⑧-|
□⑦⑥⑤ |⑨-⑩-|
15
□①□□ |①-②-|
③□□② |③-④-|
⑤□④□ |⑤-⑥-|
⑦⑦□⑥ |⑦---|
16
④③②① |①②③④|
⑧⑦⑥⑤ |⑤⑥⑦⑧|
⑫⑪⑩⑨ |⑨⑩⑪⑫|
⑯⑮⑭⑬ |⑬⑭⑮⑯|
17
□□□□ |----|
□□□□ |----|
□□□□ |----|
□□□□ |----|
18
□□□□ |----|
□□□□ |----|
□□□□ |----|
□□□□ |----|
19
③□□⑥ |①-②-|
①□⑧④ |③-④-|
⑦⑤②□ |⑤-⑥-|
①⑦□④ |⑦-⑧-|
20
□①④□ |①-②-|
⑤③□⑦ |③-④-|
□⑥⑧② |⑤-⑥-|
⑤□②⑦ |⑦-⑧-|
21
③□⑧⑥ |①-②-|
□⑤②□ |③-④-|
①⑦□④ |⑤-⑥-|
⑦①④□ |⑦-⑧-|
22
□③□□ |①-②-|
①⑥⑧④ |③-④-|
⑤□②⑦ |⑤-⑥-|
□⑤⑦② |⑦-⑧-|
23
①⑤②④ |①-②-|
③□□⑥ |③-④-|
⑦①④□ |⑤-⑥-|
⑦□⑧□ |⑦-⑧-|
24
⑤⑥⑧⑦ |①-②-|
⑤①④⑦ |③-④-|
□□□② |⑤-⑥-|
□③□② |⑦-⑧-|
25
□□□□ |①-②-|
⑦③⑥⑧ |③-④-|
①①④④ |⑤-⑥-|
⑦⑤②⑧ |⑦-⑧-|
26
①①①① |①---|
□□□□ |----|
②②②② |②---|
□□□□ |----|
27
④④⑤⑤ |①---|
①②③□ |②---|
□□□□ |③---|
①②③□ |④-⑤-|
28
□□□□ |--①②|
⑦⑤⑥④ |③-④-|
□③②① |⑤-⑥-|
□□□⑧ |⑦-⑧-|
29
□④③② |①-②③|
□□□□ |④-⑤-|
①⑥⑤⑦ |⑥-⑦-|
①⑧⑨□ |⑧-⑨-|
30
①⑧⑦⑨ |①-②③|
①④③② |④-⑤-|
⑥□□□ |⑥-⑦-|
□□□⑤ |⑧-⑨-|
31
□□□□ |①---|
④④⑤⑤ |②---|
□①②③ |③---|
□①②③ |④-⑤-|
32
□③②① |--①②|
□□□□ |③-④-|
⑤□□⑥ |⑤-⑥-|
⑦□④⑧ |⑦-⑧-|
33
⑧⑥⑦⑤ |①-②③|
①④③② |④-⑤-|
□□□□ |⑥-⑦-|
□①⑨□ |⑧-⑨-|
34
□□□□ |①②③-|
□⑦⑥⑤ |④-⑤⑥|
①②③⑧ |⑦-⑧-|
④⑨□⑩ |⑨-⑩-|
35
①②③□ |①②③-|
⑤⑦⑦⑤ |④---|
④□□□ |⑤---|
⑥□□□ |⑥-⑦-|
36
⑤□□④ |--①②|
□□□□ |③---|
□③②① |④-⑤-|
□⑦⑥□ |⑥-⑦-|
37
⑦⑤⑤⑦ |①②③-|
□③②① |④---|
□□□□ |⑤---|
⑥□□④ |⑥-⑦-|
38
□□□□ |--①②|
④□□⑤ |③---|
①②③□ |④-⑤-|
□⑥⑦□ |⑥-⑦-|
39
①②③□ |①②③-|
⑦⑤⑤⑦ |④---|
□□□□ |⑤---|
④□□⑥ |⑥-⑦-|
40
⑦□□⑥ |--①②|
□□□□ |③---|
□③②① |④-⑤-|
□⑤④□ |⑥-⑦-|
41
□⑥□□ |①②③-|
□③②① |④---|
⑦⑤⑤⑦ |⑤---|
□□□④ |⑥-⑦-|
42
⑩□①⑤ |①-②-|
④⑨□③ |③-④-|
□⑥⑧□ |⑤-⑥-|
□②□⑦ |⑦⑧⑨⑩|
43
□□⑤□ |①---|
□□①④ |②-③-|
③⑤□② |④---|
□③①□ |⑤---|
44
□①□③ |①---|
②□③□ |②-③-|
④□①□ |④---|
□⑤□⑤ |⑤---|
45
③□⑤□ |①---|
□①□④ |②-③-|
□③□② |④---|
⑤□①□ |⑤---|
46
□①□⑤ |①---|
②□⑥□ |②-③-|
④⑦□③ |④---|
⑧□③① |⑤⑥⑦⑧|
47
□③①□ |①---|
③⑤□② |②-③-|
□□①④ |④---|
□□⑤□ |⑤---|
48
□⑤□③ |①---|
④□①□ |②-③-|
②□③□ |④---|
□①□⑤ |⑤---|
49
①□①□ |①---|
⑤③□② |②-③-|
□□□④ |④---|
③□⑤□ |⑤---|
50
⑦①②⑥ |①---|
□⑧⑤② |--②-|
①④⑨□ |③④⑤⑥|
③□□⑩ |⑦⑧⑨⑩|
51
□⑤□□ |①---|
④□⑤□ |②-③-|
②□□③ |④---|
□①①□ |⑤---|
52
③□①□ |①---|
□③□② |②-③-|
□①□④ |④---|
⑤□⑤□ |⑤---|
53
□⑤□③ |①---|
④□①□ |②-③-|
②□③□ |④---|
□①□⑤ |⑤---|
54
⑤□①□ |①---|
□⑥□② |②-③-|
③□⑦④ |④---|
①③□⑧ |⑤⑥⑦⑧|
55
□①③□ |①---|
②□⑤③ |②-③-|
④①□□ |④---|
□⑤□□ |⑤---|
56
③⑤⑤□ |①---|
□①□④ |②-③-|
□③□② |④---|
□□①□ |⑤---|
57
□□□□ |①-②-|
②□⑤□ |③-④-|
□⑥①□ |⑤-⑥-|
⑧④⑦③ |⑦-⑧-|
58
④⑧⑦① |①②③-|
⑤⑩⑨② |④⑤⑥-|
⑥⑫⑪③ |⑦⑧⑨⑩|
□⑭⑬□ |⑪⑫⑬⑭|
59
□□□⑤ |①---|
③⑥⑥③ |②---|
□□□② |③-④-|
④□□① |⑤-⑥-|
60
⑤③①□ |①-②-|
⑦□□□ |③-④-|
□□□⑥ |⑤-⑥-|
□④②⑧ |⑦-⑧-|
61
□□⑥⑤ |①-②-|
⑧⑦③④ |③-④-|
①②①□ |⑤-⑥-|
③⑤⑦□ |⑦-⑧-|
62
②□□⑦ |①-②-|
□□□⑤ |③-④-|
□④□③ |⑤-⑥-|
⑥⑦⑧① |⑦-⑧-|
63
③②①□ |①---|
⑤①□⑥ |②---|
□⑤④③ |③-④-|
□□□□ |⑤-⑥-|
64
⑧⑥②④ |①-②-|
□□□□ |③-④-|
①□□□ |⑤-⑥-|
③⑤⑦□ |⑦-⑧-|
65
□□□⑥ |①-②-|
⑤②□④ |③---|
③□④③ |④-⑤-|
⑦□□① |⑥-⑦-|
66
⑤③①□ |①-②-|
⑦⑧⑨⑩ |③-④-|
□□⑥□ |⑤-⑥-|
□□②④ |⑦⑧⑨⑩|
67
⑥⑧④④ |①-②-|
□□□□ |③-④-|
①①⑦② |⑤-⑥-|
③⑤⑦□ |⑦-⑧-|
68
□□□⑦ |①-②-|
②⑥⑤⑤ |③-④-|
②④⑧③ |⑤-⑥-|
□□□① |⑦-⑧-|
69
⑤③①□ |①-②-|
⑦⑧⑦⑥ |③-④-|
□□□⑤ |⑤-⑥-|
①②③④ |⑦-⑧-|
70
□④③② |①-②-|
□□□□ |③-④-|
①□□□ |⑤---|
③⑤⑥□ |⑥---|
71
④□□□ |①②③-|
①②③⑦ |④-⑤-|
⑥④⑤□ |--⑥-|
□□□⑤ |⑦---|
72
⑧③②① |①②③-|
□⑤⑦□ |④-⑤-|
□□□④ |--⑥-|
⑤⑥④□ |⑦-⑧-|
73
□□□□ |①-②-|
②□□① |③-④-|
□④③□ |⑤-⑥-|
⑥⑧⑦⑤ |⑦-⑧-|
74
④③②① |①②③④|
⑧⑦⑥⑤ |⑤⑥⑦⑧|
⑫⑪⑩⑨ |⑨⑩⑪⑫|
□□□⑬ |⑬---|
75
□③□□ |①---|
□□□② |--②-|
□□□□ |----|
①□□□ |③---|
76
□□□□ |①---|
□□□□ |----|
□①①□ |②---|
②□□□ |----|
77
□□□③ |①---|
②□□□ |--②-|
□□□□ |----|
□□①□ |③---|
78
□□□□ |①---|
□①①□ |----|
□□□□ |----|
□□□□ |----|
79
□□□□ |①---|
□②□□ |--②-|
□□□□ |----|
③□①□ |③---|
80
□②□□ |①---|
②□□□ |----|
□①①□ |②---|
□□□□ |----|
81
□□①□ |①---|
□□□① |----|
□③□□ |----|
□□②□ |②-③-|
82
□□□□ |①---|
□□①□ |----|
□□□□ |②---|
②□□② |----|
83
①□□① |①---|
②□□□ |②---|
③①①⑤ |③---|
④□④□ |④-⑤-|
84
③①□③ |①---|
□②①□ |②---|
□③□□ |③---|
□④□□ |④---|
85
□□①□ |①---|
④□②□ |②---|
①⑤③① |③---|
□□④□ |④-⑤-|
86
□□□① |①---|
□□□② |②---|
③□□③ |③---|
①③□④ |④---|
87
①②③⑧ |①②③-|
⑩⑦⑥⑤ |④-⑤⑥|
□□□□ |⑦-⑧-|
④⑨□□ |⑨-⑩-|
88
⑤⑥⑦□ |①②③-|
□□□⑩ |④-⑤⑥|
⑧③②① |⑦-⑧-|
□□⑨④ |⑨-⑩-|
89
⑤□⑥② |①-②-|
①□①□ |③-④-|
⑦③□④ |⑤-⑥-|
①□⑧□ |⑦-⑧-|
90
□④□□ |①-②-|
②⑧⑤① |③-④-|
□⑥③⑦ |⑤-⑥-|
□①□① |⑦-⑧-|
91
①⑤①② |①-②-|
□□⑧□ |③-④-|
①⑦④□ |⑤-⑥-|
③⑦⑧⑥ |⑦-⑧-|
92
⑩□③⑤ |①-②-|
⑥⑨□① |③-④-|
②□⑧① |⑤-⑥-|
④□□⑦ |⑦⑧⑨⑩|
93
□□⑤□ |①---|
□□①④ |②-③-|
③⑤□② |④---|
□③①□ |⑤---|
94
□①□① |①---|
②□④□ |②---|
③□②□ |③---|
□④□③ |④---|
95
⑤□⑤□ |①---|
□③□④ |②-③-|
□③□② |④---|
①□①□ |⑤---|
96
⑩①□③ |①---|
②⑨④□ |②---|
①⑤⑧□ |③④⑤⑥|
⑥□□⑦ |⑦⑧⑨⑩|
97
□⑤①□ |①---|
③□□② |②-③-|
□□□④ |④---|
□□⑤□ |⑤---|
98
⑩□□⑤ |①---|
⑥⑨④□ |②③④⑤|
①③⑧□ |⑥---|
②①□⑦ |⑦⑧⑨⑩|
99
□⑦①⑧ |①---|
□□⑥② |②-③-|
③⑤□□ |④⑤⑥⑦|
□⑨④□ |⑧-⑨-|
100
④□□⑨ |①---|
①②⑧③ |②-③-|
□⑦□① |④-⑤-|
⑥□□⑤ |⑥⑦⑧⑨|
101
⑤⑤□□ |①---|
④□□□ |②-③-|
②□③③ |④---|
□①①□ |⑤---|
102
□□①③ |①---|
□④□② |②---|
□③④③ |③---|
①□④□ |④---|
103
□⑤③□ |①---|
④□①③ |②-③-|
②□□⑤ |④---|
□①□① |⑤---|
104
①□□⑤ |①---|
□⑧④⑦ |②③④⑤|
⑥③①□ |⑥-⑦-|
②□□□ |⑧---|
105
□□□□ |①②③-|
⑤□□⑦ |④-⑤-|
□⑥⑦④ |--⑥-|
⑥③②① |⑦---|
106
①②③⑥ |①②③-|
□□⑥□ |④-⑤-|
④⑦□□ |--⑥-|
⑦□□⑤ |⑦---|
107
□□③□ |①-②-|
②④□□ |③-④-|
□□⑤① |⑤-⑥-|
⑧⑥□⑦ |⑦-⑧-|
108
④⑧⑦① |①②③-|
⑤⑩⑨② |④⑤⑥-|
⑥⑫⑪③ |⑦⑧⑨⑩|
□⑭⑬□ |⑪⑫⑬⑭|
109
□□□⑤ |①---|
③□⑤③ |②---|
④□⑥② |③-④-|
□□□① |⑤-⑥-|
110
⑤③①□ |①-②-|
⑦②□⑦ |③-④-|
□⑥□⑧ |⑤-⑥-|
□□④⑨ |⑦⑧⑨-|
111
□④⑥① |①---|
□□③□ |②---|
①□⑤□ |③-④-|
②③⑤□ |⑤-⑥-|
112
④□□⑦ |①-②-|
□⑧□⑤ |③-④-|
②⑦□③ |⑤-⑥-|
□⑥□① |⑦-⑧-|
113
③②①□ |①---|
⑤□①□ |②---|
□□⑤③ |③-④-|
□□②④ |⑤---|
114
⑤□③① |①---|
□⑦④② |②---|
①⑥□□ |③-④-|
②③⑤□ |⑤-⑥⑦|
115
□①□④ |①---|
□□□③ |②---|
□□⑤② |③---|
④□□① |④-⑤-|
116
③②①□ |①---|
①□□□ |②---|
④□□□ |③---|
□□□③ |④---|
117
□⑩⑪⑫ |①-②-③-|
⑨⑧⑦□ |④-⑤-⑥-|
□④⑤⑥ |⑦-⑧-⑨-|
③②①□ |⑩-⑪-⑫-|
118
⑩⑪⑫□ |①-②-③-|
□⑨⑧⑦ |④-⑤-⑥-|
④⑤⑥□ |⑦-⑧-⑨-|
□③②① |⑩-⑪-⑫-|
119
□□□① |①---|
③□□□ |②-③-|
□⑦⑥⑤ |④---|
①②④③ |⑤-⑥-⑦-|
120
④②③□ |①---|
□□□□ |②---|
①□□□ |③---|
□□□④ |④---|
121
□□□□ |①②③-|
①②③⑦ |④-⑤-|
④□□⑤ |--⑥-|
④⑥⑤□ |⑦---|
122
□③②① |①②③-|
⑤⑦④□ |④-⑤-|
□⑤④□ |--⑥-|
□□⑥□ |⑦---|
123
④□⑤□ |①②③-|
□□⑥① |④-⑤⑥|
⑧□⑦② |⑦-⑧-|
⑪⑩⑨③ |⑨⑩⑪-|
124
⑨②⑧① |①②③④|
⑪④⑩③ |⑤⑥⑦-|
⑬⑥⑫⑤ |⑧⑨⑩⑪|
□□⑭⑦ |⑫⑬⑭-|
125
□□□□ |①---|
□□□□ |----|
□□□□ |----|
①①□□ |----|
最終更新:2026年09月21日 14:18