Any% / めめめ
BPM:157~177
Notes:871
1
□□□□ |(157)----|
□□□□ |----|
□□□□ |----|
□□□□ |----|
2
①⑪⑫① |①-②③|
⑧⑨□④ |④⑤⑥-|
□⑤⑥⑩ |⑦-⑧⑨|
②③□⑦ |⑩⑪⑫-|
3
□⑪⑫① |①-②③|
⑧⑨□④ |④⑤⑥-|
□⑤⑥⑩ |⑦-⑧⑨|
②③□⑦ |⑩⑪⑫-|
4
□⑪⑫① |①-②③|
⑧⑨□④ |④⑤⑥-|
□⑤⑥⑩ |⑦-⑧⑨|
②③□⑦ |⑩⑪⑫-|
5
□□□□ |①-②-|
□□□□ |--③-|
□□□□ |④⑤-⑥|
①――< |⑦-⑧⑨|
⑨⑧□□
③⑦⑥③
□□⑤④
②□□□
6
⑫⑨□① |①-②③|
⑧⑪□④ |④⑤⑥-|
⑥③□⑩ |⑦-⑧⑨|
②⑤□⑦ |⑩⑪⑫-|
7
⑫⑨□① |①-②③|
⑧⑪□④ |④⑤⑥-|
⑥③□⑩ |⑦-⑧⑨|
②⑤□⑦ |⑩⑪⑫-|
8
⑫⑭⑦① |①②③④|
⑯⑩③⑤ |⑤⑥⑦⑧|
⑥④⑨⑮ |⑨⑩⑪⑫|
②⑧⑬⑪ |⑬⑭⑮⑯|
9
⑥⑧⑧① |①---|
□□④⑤ |②③④⑤--|
②③□□ |⑥-⑦-|
□□□⑦ |⑧---|
10
⑬⑦□⑤ |①---|
⑫□④⑩ |②③④⑤|
⑪③⑥⑨ |-⑥⑦-|
②①①⑧ |⑧⑨⑩⑪⑫⑬|
11
□□①□ |①---|
④②②④ |②---|
□③③③ |③---|
④□□④ |④---|
12
①□□① |①---|
□□□□ |②③④⑤|
④□□⑤ |⑥⑦⑧⑨⑩⑪|
□②③□ |⑫-⑬-|
⑬⑨⑩⑪
⑥⑦⑧□
□□□□
⑫□□□
13
□⑧⑨⑩ |①②③④⑤⑥|
⑩⑨⑧⑦ |⑦--⑧|
⑥⑤④□ |--⑨-|
□③②① |-⑩--|
14
□□□□ |①---|
□□□□ |②③④⑤|
④□□⑤ |⑥⑦⑧-|
①②③① |⑨-⑩-|
□⑧⑩□
□□⑦⑩
□⑥□□
⑩□□⑨
15
④□□⑤ |--①-|
①□□□ |②③④⑤|
□□□① |⑥⑦⑧⑨⑩⑪|
□②③□ |⑫-⑬-|
□⑫□□
□⑨⑩⑪
⑥⑦⑧□
□□□□
□□□□
□□□□
□>―⑬
□□□□
16
③□□□ |①--②|
□③□□ |--③-|
②□□① |---④|
□②□□ |--⑤-|
□□□⑤
□□⑤□
□□□④
□□④□
17
□⑦⑥⑮ |①②③④|
⑧⑬⑭⑤ |⑤⑥⑦⑧|
⑫②③⑪ |-⑨⑩⑪|
①⑨⑩④ |⑫⑬⑭⑮|
18
∨□□□ |①---|
|□□□ |②-③-|
|□□□ |④---|
①□□□ |⑤-⑥-|
□②②□
□>―④
□③□□
②>―④
⑤□□□
□□□⑤
□□□□
□⑥□⑤
19
□□□□ |①---|
①―<□ |②-③-|
□□□□ |④⑤⑥⑦⑧⑨|
①―<□ |⑩-⑪-|
⑩□□②
②⑦⑧⑨
④⑤⑥□
②⑪③□
20
□□□∨ |①---|
□□□| |②-③-|
□□□| |④---|
□□□① |⑤-⑥-|
□②②□
④―<□
□□③□
④―<②
□□□⑤
⑤□□□
□□□□
⑤□⑥□
21
⑦□⑧⑩ |①②③④⑤⑥|
⑨④⑤⑥ |⑦--⑧|
①②③⑨ |--⑨-|
⑩⑧□□ |-⑩--|
22
①□□∨ |①---|
□□①| |②-③-|
□①□| |④---|
□□□① |⑤-⑥-|
□②②□
④―<□
□□③□
④―<②
□□□⑤
⑤□□□
□□□□
⑤□⑥□
23
□□□□ |①---|
□>―① |②-③-|
□□□□ |④⑤⑥⑦⑧⑨|
□>―① |⑩-⑪-|
②□□⑩
⑨⑧⑦②
□⑥⑤④
⑪③□②
24
□④②□ |---①|
③④②① |--②-|
③②④① |---③|
□③①□ |--④-|
25
①□□① |①---|
□□②□ |②③④⑤|
□③□□ |⑥⑦⑧⑨|
□⑤④□ |⑩⑪⑫⑬|
⑬□□⑨
⑫□□⑧
⑪□□⑦
⑩□□⑥
26
□②③④ |①-②-|
□□□⑤ |③-④-|
□□①⑥ |⑤-⑥-|
□□⑧⑦ |⑦-⑧-|
27
□□□□ |--①-|
①□⑦□ |②-③-|
②⑤⑥□ |④-⑤-|
③④□□ |⑥-⑦-|
28
②③④□ |--①-|
①□⑤□ |②-③-|
□□⑥⑦ |④-⑤-|
□□□□ |⑥-⑦-|
29
④□□□ |--①-|
□⑥⑥□ |②-③-|
③⑤⑤□ |④--⑤|
②①□④ |-⑥--|
30
④③②① |①-②-|
⑧⑦⑥⑤ |③-④-|
⑤⑥⑦⑧ |⑤-⑥-|
①②③④ |⑦-⑧-|
31
⑤⑥②① |①-②-|
⑦⑧④③ |③-④-|
③④⑧⑦ |⑤-⑥-|
①②⑥⑤ |⑦-⑧-|
32
④⑧⑤① |①②③④|
□□③□ |⑤⑥⑦⑧|
□⑥□□ |⑨⑩⑪⑫⑬⑭|
□②⑦□ |⑮⑯⑰⑱⑲⑳|
⑱□□⑰
⑭⑯⑲⑬
⑫□⑮⑪
⑩⑳□⑨
33
□②①□ |①---|
③□□③ |----|
③□□③ |②---|
□□②□ |③---|
34
□□①① |①-②-|
□□|| |③-④-|
□□∧∧ |⑤---|
①□□□ |⑥---|
□□②②
□□□□
□④④□
□③□□
□□□□
□□□□
⑤――<
□□⑤□
□□□□
――⑥
⑥□□□
□□□⑥
35
□∨∨□ |①-②-|
□①①① |③-④⑤|
□□□□ |⑥-⑦-|
①□□□ |⑧-⑨-|
⑨□□□
□②②⑧
⑦⑥⑤④
□③⑥⑧
36
□□①① |①-②-|
□□|| |③-④-|
□□∧∧ |⑤---|
①□□□ |⑥---|
□□②②
□□□□
□④④□
□③□□
□□□□
□□□□
⑤――<
□□⑤□
□□□□
――⑥
⑥□□□
□□□⑥
37
□∨∨□ |①-②-|
□①①① |③-④⑤|
□□□□ |⑥-⑦-|
①□□□ |⑧---|
□□□⑦
②②②⑧
⑧⑥⑤④
□③⑥□
38
□□□□ |①---|
④□□⑤ |②③④⑤|
□□□□ |⑥⑦⑧-|
①②③① |⑨-⑩-|
□⑧□⑩
□□⑦□
□⑥□⑨
⑩□□□
39
□⑨⑩⑪ |--①-|
⑥⑦⑧① |②③④⑤|
④⑫□⑤ |⑥⑦⑧⑨⑩⑪|
□②③□ |⑫---|
40
①―<□ |①--②|
□□□□ |③---④-|
□□□□ |⑤---⑥-|
□>―① |--⑦---|
②⑦⑥⑤
□④□③
③□④□
⑤⑥⑦②
41
□□□□ |①---|
①□□① |----|
①□□① |----|
□□□□ |----|
42
□⑦④④ |①-②-③-|
⑥②⑪⑧ |④---⑤-|
⑥⑩③⑤ |⑥-⑦-⑧-|
①①⑨⑨ |⑨-⑩-⑪-|
43
□□④④ |①-②-③-|
□②□□ |④---⑤-|
□□③⑤ |⑥-⑦-⑧-|
①①□□ |⑨-⑩-⑪-|
⑥⑥□□
⑩□□⑧
⑦□⑪□
⑨⑨□□
44
④④⑦□ |①-②-③-|
⑧⑪②⑥ |④---⑤-|
⑤③⑩⑥ |⑥-⑦-⑧-|
⑨⑨①① |⑨-⑩-⑪-|
45
④④□□ |①-②-③-|
□□②□ |④---⑤-|
⑤③□□ |⑥-⑦-⑧-|
□□①① |⑨-⑩-⑪-|
□□⑥⑥
⑧□□⑨
□□□⑩
⑦□□⑪
46
□④④□ |①-②-③-|
⑤③③□ |④---⑤-|
□②②□ |⑥-⑦-⑧-|
□①①□ |⑨-⑩-⑪-|
⑦□□⑥
□□□⑥
⑧⑪□⑩
□□⑨⑨
47
□⑦④④ |①-②-③-|
⑥②⑪⑤ |④---⑤-|
⑥⑩③⑧ |⑥-⑦-⑧-|
①①⑨⑨ |⑨-⑩-⑪-|
48
①□③① |①---|
⑥②□⑥ |②---③-|
⑤□②⑤ |④---⑤-|
④□□④ |--⑥---|
49
①□□① |①---|
□□□□ |----|
□□□□ |----|
□□□□ |----|
50
□□□□ |①---|
――① |----|
□□□□ |----|
□□□□ |----|
51
□□□□ |----|
□□□□ |----|
□□□□ |----|
□□□□ |----|
52
①――< |①---|
□□②① |②-③-|
□□□□ |--④-|
□③□□ |--⑤-|
□□□④
□□□□
□□□□
□□□⑤
53
□□□□ |--①-|
□⑤③□ |②-③-|
④②□□ |----|
□□①□ |④-⑤-|
54
①□①□ |①---|
③□|□ |----|
□□|□ |--②-|
②□∧□ |③-④-|
□□□□
□□□□
□□□□
□□④□
55
∨□⑤④ |--①-|
|③□□ |②-③-|
|□②□ |--④-|
⑤①□□ |--⑤-|
56
□□□□ |----|
□□□□ |----|
□□□□ |----|
□□□□ |----|
57
□①①□ |①---|
□||□ |----|
□∧∧□ |----|
①□□□ |②---|
□②②□
□□□□
□□□□
□□□□
58
①⑪⑫① |①-②③|
⑧⑨□④ |④⑤⑥-|
□⑤⑥⑩ |⑦-⑧⑨|
②③□⑦ |⑩⑪⑫-|
59
□⑪⑫① |(159)①-②③|
⑧⑨□④ |④⑤⑥-|
□⑤⑥⑩ |⑦-⑧⑨|
②③□⑦ |⑩⑪⑫-|
60
□⑪⑫① |(162)①-②③|
⑧⑨□④ |④⑤⑥-|
□⑤⑥⑩ |⑦-⑧⑨|
②③□⑦ |⑩⑪⑫-|
61
□□□□ |(164)①-②-|
□□□□ |--③-|
□□□□ |④⑤-⑥|
①――< |⑦-⑧⑨|
⑨⑧□□
③⑦⑥③
□□⑤④
②□□□
62
⑫⑨□① |(167)①-②③|
⑧⑪□④ |④⑤⑥-|
⑥③□⑩ |⑦-⑧⑨|
②⑤□⑦ |⑩⑪⑫-|
63
⑫⑨□① |(170)①-②③|
⑧⑪□④ |④⑤⑥-|
⑥③□⑩ |⑦-⑧⑨|
②⑤□⑦ |⑩⑪⑫-|
64
⑫⑭⑦① |(172)①②③④|
⑯⑩③⑤ |⑤⑥⑦⑧|
⑥④⑨⑮ |⑨⑩⑪⑫|
②⑧⑬⑪ |⑬⑭⑮⑯|
65
――① |(175)①-②-|
□□□□ |----|
□□□□ |---③|
□□□□ |④-⑤⑥|
□□□②
□③④□
□□⑤⑥
□□□□
66
②③④⑤ |(177)①---|
①□□① |--②-|
□□□□ |-③--|
□□□□ |④--⑤|
67
□⑥⑥□ |①-②-|
□⑤④② |③④--|
⑥□□⑥ |⑤---|
①③⑤□ |⑥---|
68
③④⑥⑦ |①---|
□□□□ |②-③-|
□②②⑥ |-④⑤-|
①□⑤① |⑥--⑦|
69
⑨□□□ |①-②-|
②④⑤⑦ |③④--|
⑧③③□ |⑤-⑥⑦|
①⑥□① |⑧-⑨-|
70
⑦⑥④③ |①---|
□□□□ |②-③-|
⑥②②□ |-④⑤-|
①⑤□① |⑥--⑦|
71
□□□⑨ |①-②-|
⑦⑤④② |③④--|
□③③⑧ |⑤-⑥⑦|
①□⑥① |⑧-⑨-|
72
③④⑥⑦ |①---|
□□□□ |②-③-|
□②②⑥ |-④⑤-|
①□⑤① |⑥--⑦|
73
⑨□□□ |①-②-|
②④⑤⑦ |③④--|
⑧③③□ |⑤-⑥⑦|
①⑥□① |⑧-⑨-|
74
――② |①---|
□□□□ |--②-|
――② |----|
①□□① |----|
75
□④④③ |①---|
③③③□ |②---|
②②□③ |③---|
①④④□ |④---|
76
□□□□ |①---|
――③ |②-③-|
□②□□ |④-⑤-|
①□□① |⑥⑦⑧⑨|
④□□□
□□□⑥
⑥□⑤□
□⑦⑧⑨
77
⑤⑤④④ |①-②-|
②②⑦⑦ |③-④-|
□⑥□③ |⑤-⑥-|
①□⑧□ |⑦-⑧-|
78
□□③③ |①---|
②―<□ |--②-|
□□□□ |--③-|
①④④① |④---|
79
⑨⑩□⑪ |①②③④|
①⑥⑦⑧ |⑤⑥⑦⑧|
⑤②③④ |⑨⑩-⑪|
①⑫⑫□ |⑫---|
80
②③④⑤ |①---|
□□□□ |--②-|
□□□□ |-③--|
①□□① |④--⑤|
81
□□□□ |--①-|
①②③⑥ |-②--|
⑩⑨⑧⑦ |③④⑤⑥|
⑥⑤④③ |⑦⑧⑨⑩|
82
□□□□ |----|
□□□□ |----|
□□□□ |----|
□□□□ |----|
最終更新:2026年09月21日 14:18