Smintheus / TAN1CHU
BPM:228~250
Notes:975
1
□□□□ |(228)----|
□④□□ |----|
□③□□ |----|
□②①□ |①②③④|
2
②□⑦③ |①---|
□□①④ |②-③④|
□□□⑤ |⑤-⑥-|
⑥□□② |-⑦--|
□⑧□□ |⑧--⑨|
⑩□⑨⑪ |--⑩-|
⑩⑨□⑪ |-⑪--|
□⑪⑧⑩
3
□□□① |①---|
□①□□ |----|
□□①□ |----|
①□□□ |----|
□□□□ |----|
□□□□ |----|
□□□□ |----|
□□□□
4
□□□□ |----|
□□□□ |----|
□□□□ |----|
□□□□ |----|
□□□□ |----|
□□□□ |----|
□□□□ |----|
□□□□
5
⑥⑧□③ |①-②-|
□②⑤□ |③-④-|
□□□□ |⑤-⑥-|
①□⑦④ |⑦-⑧-|
□□⑩□ |⑨-⑩-|
⑬□□⑫ |⑪-⑫-|
⑪⑭□□ |⑬-⑭-|
□⑨□□
6
③□⑧⑥ |①-②-|
□⑤②□ |③-④-|
□□□□ |⑤-⑥-|
④⑦□① |⑦-⑧-|
□⑬□□ |⑨-⑩-|
⑫□⑩⑯ |⑪-⑫-⑬-|
⑪⑨□⑮ |⑭-⑮-⑯-|
□□⑭□
7
⑥⑧□③ |①-②-|
□②⑤□ |③-④-|
□□□□ |⑤-⑥-|
①□⑦④ |⑦-⑧-|
8
□□⑤□ |①-②-|
⑦□□② |③-④-|
④⑧③⑥ |⑤-⑥-|
□①□□ |⑦-⑧-|
9
⑥⑧□③ |①-②-|
□②⑤□ |③-④-|
□□□□ |⑤-⑥-|
①□⑦④ |⑦-⑧-|
10
□□②□ |①-②-|
④□□□ |③-④-|
□⑤⑤③ |⑤---|
□①□□
11
③□⑧⑥ |①-②-|
□⑤②□ |③-④-|
□□□□ |⑤-⑥-|
④⑦□① |⑦-⑧-|
12
□⑤□□ |①-②-|
②□□⑦ |③-④-|
⑥③⑧④ |⑤-⑥-|
□□①□ |⑦-⑧-|
13
③□⑧⑥ |①-②-|
□⑤②□ |③-④-|
□□□□ |⑤-⑥-|
④⑦□① |⑦-⑧-|
14
□□□□ |①-②-|
④□②⑤ |③-④-|
□①⑥③ |⑤-⑥-|
□□□□
15
③□⑥⑦ |①-②-|
□②⑤□ |③---|
□□⑧⑨ |④-⑤⑥|
□①④□ |⑦-⑧⑨|
16
④③□⑦ |①-②③|
□②⑥□ |④---|
⑧□□□ |⑤-⑥-|
⑨□⑤① |⑦-⑧⑨|
17
②□□□ |①---|
□③⑤④ |②-③-|
□⑥⑦□ |④-⑤-|
□①⑧⑨ |⑥⑦⑧⑨|
18
⑦④③□ |①-②-|
⑥⑤□⑧ |③④⑤⑥|
□□□① |⑦---|
②□□□ |⑧---|
19
⑦⑥□③ |①-②-|
□⑤②□ |③---|
⑨⑧□□ |④-⑤⑥|
□④①□ |⑦-⑧⑨|
20
⑦□③④ |①-②③|
□⑥②□ |④---|
□□□⑧ |⑤-⑥-|
①⑤□⑨ |⑦-⑧⑨|
21
⑥④□③ |①-②-|
□⑥②□ |③---|
□⑤⑤□ |④--⑤|
□④①□ |--⑥-|
22
□□①③ |①--②|
②□③② |--③-|
⑤⑥⑦⑧ |④---|
④□①④ |⑤⑥⑦⑧|
23
③□⑥⑦ |①-②-|
□②⑤□ |③---|
□□⑧⑨ |④-⑤⑥|
□①④□ |⑦-⑧⑨|
24
④③⑦□ |①-②③|
□②⑥□ |④---|
⑧□□□ |⑤-⑥-|
⑨□⑤① |⑦-⑧⑨|
25
②□□⑤ |①---|
□③□④ |②-③-|
□⑥⑦□ |④-⑤-|
□①⑧⑨ |⑥⑦⑧⑨|
26
⑫④③⑪ |①-②-|
⑥⑤⑧⑦ |③④⑤⑥|
②⑭⑬① |⑦⑧⑨⑩|
⑩⑨□□ |⑪⑫⑬⑭|
27
□⑤⑥□ |①---|
□④□③ |②---|
□□□② |③-④⑤|
□□①□ |⑥---|
28
□□□⑦ |①-②③|
⑥□⑤□ |④---|
□④③□ |⑤---|
①□②□ |⑥-⑦-|
29
□③④□ |①-②-|
⑪□□⑫ |③-④-|
⑨⑦⑧⑩ |⑤⑥⑦⑧|
①⑤⑥② |⑨⑩⑪⑫|
30
②③④⑤ |①---|
□⑥⑥□ |②-③-|
□□□□ |④-⑤-|
①□□□ |⑥---|
31
②⑨□□ |①---|
③□⑨□ |②③④⑤⑥⑦|
④①①□ |⑧---|
⑤⑥⑦⑧ |--⑨-|
32
⑤□①⑤ |----|
□①□② |①-②③|
□□④③ |④---|
□□□□ |⑤---|
33
□⑤⑥□ |①②③-|
□⑥⑤□ |--④-|
④□□□ |⑤---|
①②③□ |--⑥-|
34
□□□□ |----|
②□⑥⑤ |①-②③|
③④⑧⑦ |④---|
□①①□ |⑤⑥⑦⑧|
35
③□⑤④ |①---②-|
□⑤□□ |--③---|
□□□□ |④---|
②□□① |--⑤-|
36
⑤①□⑤ |----|
②□①□ |①-②③|
③④□□ |④---|
□□□□ |⑤---|
37
□⑥⑤□ |①②③-|
□⑤⑥□ |--④-|
□□□④ |⑤---|
□③②① |--⑥-|
38
⑤□□□ |----|
□□□② |①-②③|
□□④③ |④---|
□①①□ |⑤---|
39
□□□② |①---|
□①①□ |----|
□□□□ |----|
①□□① |②---|
40
②③□⑥ |①---|
□④□□ |②③④-|
□□⑤□ |--⑤-|
□①①□ |⑥---|
41
②□□⑤ |①---|
□□④□ |②---|
□□□□ |③-④-|
①□③① |⑤---|
42
②③⑦□ |①---|
□④□⑤ |②③④-|
□①①⑧ |⑤-⑥-|
⑥□□⑨ |⑦-⑧⑨|
43
⑤□□② |①---|
□④□□ |②---|
□□□□ |③-④-|
□③①□ |⑤---|
44
⑥⑦③② |①---|
□□④□ |②③④-|
□⑤□□ |--⑤-|
□□①□ |⑥-⑦-|
45
□□□③ |①-②-|
⑥□④□ |③---|
□□□② |④-⑤-|
□⑤①□ |⑥---|
46
②③□⑥ |①---|
□④□□ |②③④-|
□□⑤□ |--⑤-|
⑦⑧⑨① |⑥--⑦⑧⑨|
47
□□□□ |①---|
□□□□ |----|
□□□□ |----|
□□□① |----|
48
□□□□ |①---|
□□□□ |----|
□□□□ |----|
□□□① |----|
49
①□①□ |①---|
⑤③□□ |②-③-|
□①□① |--④-|
②④□□ |⑤---|
50
④②□□ |①-②-|
□□□④ |--③-|
①③□□ |④---|
⑤⑤④□ |⑤---|
51
□□□③ |①---|
□①①⑤ |②-③-|
①□②① |--④-|
□□④□ |⑤---|
52
□□②□ |①-②-|
②□④□ |--③-|
□□□① |④---|
②□⑤③ |⑤---|
53
①□□① |①---|
③⑤□□ |②-③-|
①□□① |--④-|
④②□□ |⑤---|
54
②④□□ |①-②-|
□□□□ |--③-|
③①□□ |④---|
⑤⑤□□ |⑤---|
55
□□□① |①-②-|
□⑨②⑤ |③-④-|
⑧□⑥③ |⑤-⑥-|
□□④⑦ |⑦-⑧⑨|
56
③③①□ |①-②-|
□□□□ |③---|
□□□□ |----|
②②□□ |----|
57
③□⑧⑥ |①-②-|
□⑤②⑦ |③-④-|
④□□① |⑤-⑥-|
④⑦□① |⑦-⑧-|
58
⑤⑤□□ |①-②-|
②□②⑦ |③-④-|
⑥③⑧④ |⑤-⑥-|
□□①□ |⑦-⑧-|
59
⑥⑧□③ |①-②-|
⑦②⑤□ |③-④-|
□□□④ |⑤-⑥-|
①①⑦④ |⑦-⑧-|
60
□□⑤⑤ |①-②-|
⑦②□② |③-④-|
④⑧③⑥ |⑤-⑥-|
□①□□ |⑦-⑧-|
61
③□⑧⑥ |①-②-|
□⑤②⑦ |③-④-|
④□□□ |⑤-⑥-|
④⑦①① |⑦-⑧-|
62
⑤⑤□□ |①-②-|
②□②⑦ |③-④-|
⑥③⑧④ |⑤-⑥-|
□□①□ |⑦-⑧-|
63
⑨⑩⑦⑧ |①②③④|
⑤⑥⑪⑭ |⑤⑥⑦⑧|
⑬□□⑫ |⑨⑩⑪⑫|
①②③④ |⑬-⑭-|
64
□□□□ |----|
□□□□ |----|
⑤⑥⑦⑧ |①②③④|
①②③④ |⑤⑥⑦⑧|
65
①②□□ |①②③-|
⑤③□④ |④-⑤-|
⑧□□□ |⑥---|
⑥□⑦□ |⑦-⑧-|
66
⑤□②① |①②③-|
□⑦③⑧ |④-⑤-|
□⑥⑨□ |⑥⑦--|
□□□④ |⑧-⑨-|
67
□③⑦□ |①-②-|
④□⑥□ |--③-|
②□□□ |④-⑤-|
⑤①□□ |⑥⑦--|
68
①□□③ |--①-|
④②□④ |②-③-|
□⑤⑤□ |④---|
□□□□ |⑤---|
69
④⑤⑥⑦ |①②③-|
⑪⑩⑨⑧ |④⑤⑥⑦|
⑫□□① |⑧⑨⑩⑪|
⑬⑭③② |⑫⑬⑭-|
70
④⑤⑥⑦ |①②③-|
⑪⑩⑨⑧ |④⑤⑥⑦|
□⑬⑫① |⑧⑨⑩⑪|
⑮⑭③② |⑫⑬⑭⑮|
71
④⑤⑥⑦ |①②③-|
⑪⑩⑨⑧ |④⑤⑥⑦|
⑫□⑬① |⑧⑨⑩⑪|
□□③② |⑫-⑬-|
72
□□③⑥ |①--②|
□□④□ |--③-|
⑤②□① |--④-|
①③②④ |⑤-⑥-|
73
①②□□ |①②③-|
⑤③□④ |④-⑤-|
⑧□④□ |⑥---|
⑥□⑦□ |⑦-⑧-|
74
⑤□②① |①②③-|
□⑦③⑧ |④-⑤-|
□⑥⑨□ |⑥⑦--|
□□□④ |⑧-⑨-|
75
□③⑦□ |①-②-|
⑤□⑥□ |--③-|
②□□□ |④-⑤-|
④①□□ |⑥⑦--|
76
①□□③ |--①-|
⑤②□⑤ |②-③-|
□④④□ |④---|
□□□□ |⑤---|
77
□□□□ |①---|
⑥③③□ |②-③-|
⑤□□① |④---|
①②④⑤ |⑤-⑥-|
78
⑤④②① |①---|
□□□□ |②-③-|
□③③① |④---|
□⑤⑤□ |⑤---|
79
□⑤⑥□ |①-②-|
①□□② |③-④-|
⑦□□⑧ |⑤-⑥-|
③□□④ |⑦-⑧-|
80
①⑨⑧□ |①---|
①⑦⑥□ |----|
□⑤④□ |②③④⑤|
□③②□ |⑥⑦⑧⑨|
81
□□□④ |①-②-|
③□□① |③-④-|
②⑨⑪⑩ |⑤⑥⑦⑧|
⑤⑥⑦⑧ |⑨-⑩⑪|
82
③②⑤⑦ |①-②③|
④⑥①⑧ |④-⑤-|
□□□⑨ |⑥---|
□□□⑩ |⑦⑧⑨⑩|
83
②□⑨⑧ |①---|
③⑦⑪⑩ |②③④⑤|
④□□□ |⑥-⑦-|
⑤⑥①□ |⑧⑨⑩⑪|
84
③②□□ |①-②-|
⑦⑧□□ |③-④-|
④⑨⑩① |⑤-⑥-|
□⑤□⑥ |⑦⑧⑨⑩|
85
③②⑦⑥ |①---|
□□⑨⑧ |②③-④|
⑤□□□ |-⑤--|
④□①□ |⑥⑦⑧⑨|
86
⑥⑤□⑬ |①②③④|
⑧⑦□□ |⑤⑥⑦⑧|
⑩⑨②① |⑨⑩⑪⑫|
⑫⑪④③ |⑬---|
87
□⑤③□ |①---|
□□①① |②-③-|
⑤□□③ |--④-|
□④②□ |⑤---|
88
⑤□④□ |①-②-|
□③⑥② |③-④-|
□①□□ |⑤-⑥-|
⑦□⑦□ |⑦---|
89
⑩②⑨① |①②③④|
⑭⑥⑬⑤ |⑤⑥⑦⑧|
⑫④⑪③ |⑨⑩⑪⑫|
⑯⑧⑮⑦ |⑬⑭⑮⑯|
90
⑩②⑨① |①②③④|
□⑥□⑤ |⑤⑥⑦⑧|
⑫④⑪③ |⑨⑩⑪⑫|
□⑧□⑦ |----|
91
⑮⑦⑯⑧ |①②③④|
③⑪④⑫ |⑤⑥⑦⑧|
⑬⑤⑭⑥ |⑨⑩⑪⑫|
①⑨②⑩ |⑬⑭⑮⑯|
92
□⑦□⑧ |①②③④|
③⑪④⑫ |⑤⑥⑦⑧|
⑬⑤□⑥ |⑨⑩⑪⑫|
①⑨②⑩ |⑬---|
93
①④②④ |①--②|
③□③□ |--③-|
⑤⑥⑦⑧ |-④--|
①□②□ |⑤⑥⑦⑧|
94
③□④□ |①--②|
□②□② |--③-|
⑤⑥⑦⑧ |-④--|
③①④① |⑤⑥⑦⑧|
95
□③□⑥ |①--②|
①⑤④② |--③-|
□□□□ |④--⑤|
□①□④ |--⑥-|
96
②□④□ |①-②-|
⑤□□⑦ |③-④-|
□①③□ |⑤-⑥-|
□⑥□⑧ |⑦-⑧-|
97
□⑤□□ |-①--|
⑤④③□ |②--③|
□③②① |--④-|
□□①□ |-⑤--|
98
①□□□ |①---|
□□□□ |----|
□□□□ |----|
□□□□ |----|
□□□□ |----|
□□□□ |----|
□□□□ |----|
□□□□
99
□□□□ |----|
□□□□ |----|
□□□□ |----|
□□□□ |----|
□□□□ |----|
□□□□ |----|
□□□□ |----|
□□□□
100
⑥⑧□③ |①-②-|
□②⑤□ |③-④-|
□□□□ |⑤-⑥-|
①□⑦④ |⑦-⑧-|
□□⑩□ |⑨-⑩-|
⑬□□⑫ |⑪-⑫-|
⑪⑭□□ |⑬-⑭-|
□⑨□□
101
③⑧□⑥ |①-②-|
□⑤②□ |③-④-|
□□□□ |⑤-⑥-|
④□⑦① |⑦-⑧-|
□□⑩□ |⑨-⑩-|
□□□□ |----|
□□□□ |(250)----|
□⑨□□
102
⑥⑧□③ |①-②-|
□②⑤□ |③-④-|
□□□□ |⑤-⑥-|
①□⑦④ |⑦-⑧-|
103
□□⑤□ |①-②-|
⑦□□② |③-④-|
④⑧③⑥ |⑤-⑥-|
□①□□ |⑦-⑧-|
104
⑥□□③ |①-②-|
□②⑤□ |③-④-|
⑦□□⑩ |⑤-⑥-|
①⑧⑨④ |⑦⑧⑨⑩|
105
□③②□ |①②③④|
④□□① |⑤---|
□⑥⑤□ |⑥---|
□□□□
106
③□⑧⑥ |①-②-|
□⑤②□ |③-④-|
□□□□ |⑤-⑥-|
④⑦□① |⑦-⑧-|
107
□⑤□□ |①-②-|
②□□⑦ |③-④-|
⑥③⑧④ |⑤-⑥-|
□□①□ |⑦-⑧-|
108
③□⑧⑥ |①-②-|
□⑤②□ |③-④-|
□□□□ |⑤-⑥-|
④⑦□① |⑦-⑧-|
109
④②□□ |①---②-|
②⑥⑤③ |--③---|
④⑥⑤① |④---⑤-|
□□①③ |--⑥---|
110
⑥④①① |①---②-|
③□□⑥ |--③---|
⑤□□④ |④---⑤-|
②②③⑤ |--⑥---|
111
□□④③ |①---②-|
□②①□ |--③---|
□①②□ |④---|
③④□□ |----|
最終更新:2026年09月21日 14:18