極東の羊、テレキャスターと踊る / しゃろう
BPM:130
Notes:640
1
□□□□ |----|
□□□□ |----|
□□□□ |----|
□□□□ |----|
2
②⑦⑦② |①-②-|
①⑥④① |③④-⑤|
⑦□□⑦ |⑥---|
□③⑤□ |⑦---|
3
②□□② |①-②-|
①⑥④① |③④-⑤|
□①①□ |⑥---|
□③⑤□ |⑦---|
□□□□
□□□□
□⑦⑦□
□□□□
4
②①①② |①-②-|
①⑥④① |③④-⑤|
⑦□□⑦ |⑥---|
⑦③⑤⑦ |⑦---|
5
②□□② |①-②-|
①⑥④① |③④-⑤|
□①①□ |⑥-⑦-|
□③⑤□ |⑧-⑨-|
□□□□
□□□⑨
⑧⑧⑧□
□□□⑦
6
①①①③ |①---|
⑥④④□ |②-③-|
□□⑦⑤ |④-⑤-|
②□⑥□ |⑥-⑦-|
7
□①①② |①-②-|
□⑥④□ |③④-⑤|
①□□□ |⑥---|
⑦③⑤⑦ |⑦-⑧-|
□□□⑧
□□□□
□□□□
□□□□
8
②⑥⑥□ |①---|
□□⑤⑦ |②-③-|
④①①④ |④-⑤-|
□□③□ |⑥-⑦-|
9
□□□② |①-②-|
⑧⑥④⑧ |③④-⑤|
⑦①①⑦ |⑥-⑦-|
□③⑤□ |⑧---|
10
②②④④ |①---|
□⑤②□ |②---|
□□④□ |③---|
①③□③ |④-⑤-|
11
②②⑤⑤ |①---|
□⑤□□ |②---|
⑥□④□ |③-④-|
①□□③ |⑤-⑥-|
12
②②④④ |①---|
□⑤②□ |②---|
□□④□ |③---|
①③□③ |④-⑤-|
13
②②④④ |①---|
□□□□ |②---|
□□□□ |③---|
①□□③ |④---|
14
②②④④ |①---|
□②⑤□ |②---|
□④□□ |③---|
①□③③ |④-⑤-|
15
②②⑤⑤ |①---|
□□⑤□ |②---|
□④□⑥ |③-④-|
①□□③ |⑤-⑥-|
16
②②⑥⑥ |①---|
□②⑤□ |②-③-|
□⑥③□ |④-⑤-|
①□⑦④ |⑥-⑦-|
17
③③⑦⑥ |①-②-|
□□□□ |③---|
②□□② |④⑤-⑥|
①□⑤④ |⑦---|
18
②②□□ |①---|
□①①□ |②---|
□①①□ |③---|
□③□③ |④-⑤-|
□□④④
□⑤□□
□□④□
□□□□
19
②②⑤⑤ |①---|
□⑤□□ |②---|
⑥□④□ |③-④-|
①□□③ |⑤-⑥-|
20
②②④④ |①---|
□⑤②□ |②---|
□□④□ |③---|
①③□③ |④-⑤-|
21
②②④④ |①---|
□□□□ |②---|
□□□□ |③---|
①□□③ |④---|
22
②②④④ |①---|
□②⑤□ |②---|
□④□□ |③---|
①□③③ |④-⑤-|
23
②②⑤⑤ |①---|
□□⑤□ |②---|
□④□⑥ |③-④-|
①□□③ |⑤-⑥-|
24
②②⑥⑥ |①---|
□②⑥⑤ |②-③-|
□⑦③□ |④-⑤-|
①□□④ |⑥-⑦-|
25
③③□□ |①-②-|
□□□□ |③---|
□□□□ |④-⑤-|
①②②④ |⑥-⑦-|
□□□□
□⑥⑦□
⑤⑥⑦□
⑤□□□
26
②□□① |①---|
□⑥⑥① |②---|
□⑤⑤□ |③-④-|
③□④④ |⑤-⑥-|
27
①①③③ |①---|
④④⑥⑥ |②-③-|
□□⑤⑤ |④-⑤-|
②□□□ |⑥-⑦-|
□□□□
□□□□
□□□□
⑦⑦□□
28
□⑤⑤□ |①---|
⑥⑥④④ |②---|
①①□□ |③-④-|
③□□② |⑤-⑥-|
29
□□□□ |①---|
⑥⑤⑤⑥ |②---|
②④④① |③-④-|
⑥③③⑥ |⑤--⑥|
30
④⑧⑧④ |--①-|
⑥□□⑥ |②-③-|
②□□② |④-⑤-|
⑤①③⑦ |⑥-⑦⑧|
31
④□□④ |--①-|
⑥□□⑥ |②-③-|
②□□② |④-⑤-|
⑤①③□ |⑥-⑦⑧|
□□□□
□⑧⑧□
□□□⑦
□□□□
32
□④④□ |--①-|
□□□⑤ |②③-④|
⑥②③□ |--⑤-|
②⑥①③ |⑥⑦-⑧|
⑧□□⑧
□□□□
□□□⑦
□□⑦□
33
□③④⑤ |-①②-|
⑦①②⑦ |③-④-|
□③④⑤ |⑤-⑥-|
□⑦⑦⑥ |⑦-⑧-|
□□□□
□□⑧□
□□□□
□□□□
34
①①①③ |①---|
⑥④④□ |②-③-|
□□⑦⑤ |④-⑤-|
②□⑥□ |⑥-⑦-|
35
□①①② |①-②-|
□⑥④□ |③④-⑤|
①□□□ |⑥---|
⑦③⑤⑦ |⑦-⑧-|
□□□⑧
□□□□
□□□□
□□□□
36
②⑥⑥□ |①---|
□□⑤⑦ |②-③-|
④①①④ |④-⑤-|
□□③□ |⑥-⑦-|
37
□□□② |①-②-|
□⑥④□ |③④-⑤|
□①①⑦ |⑥-⑦-|
□③⑤□ |⑧-⑨-|
□□⑧□
□□□□
⑧⑧⑨□
□□□□
38
□①⑤① |①---|
①④□⑥ |②-③-|
⑥□⑦□ |④-⑤-|
②□④③ |⑥-⑦-|
39
①□□② |①-②-|
□⑥④□ |③④-⑤|
□□□□ |⑥-⑦-|
□③⑤① |⑧⑨⑩-|
□□□⑧
□□□⑨
□□□⑩
⑦□□⑦
40
②①①⑥ |①---|
③⑤⑤⑦ |②③④-|
④□□□ |⑤---|
□□□⑧ |⑥⑦⑧-|
41
⑥□□⑦ |①-②-|
⑧□④⑨ |③④-⑤|
⑩①①② |⑥⑦⑧⑨|
□③⑤□ |⑩⑪⑫-|
□□□□
□□□□
□□□⑪
⑫□□□
42
⑥①①③ |①---|
□④⑤⑦ |②-③-|
□⑥③□ |④-⑤-|
④②⑦⑤ |⑥-⑦-|
43
□□⑩□ |①②③④|
①②⑥⑩ |⑤-⑥⑦|
⑨⑦③④ |⑧---|
⑤⑨⑧□ |⑨-⑩-|
44
⑤□□□ |①---|
⑦⑤⑥④ |②-③-|
③⑦④⑥ |④-⑤-|
①③②① |⑥-⑦-|
45
□□□② |①-②-|
□⑥④□ |③④-⑤|
□□□□ |⑥-⑦-|
①③⑤① |⑧-⑨-|
□□□□
⑨□⑨□
□⑧□⑧
⑦□□⑦
46
□①④① |①---|
□③□□ |②-③-|
□□④□ |④-⑤-|
□③□② |⑥-⑦-|
⑥⑦□⑤
□□□□
⑥⑦□⑤
□□□□
47
□□□□ |①-②-|
□⑥④② |③④-⑤|
□□□□ |⑥-⑦-|
①③⑤① |⑧⑨⑩-|
□□□⑧
□□□⑨
□□□⑩
⑦□□⑦
48
③①①⑧ |①-②-|
④⑥⑥⑨ |③④⑤-|
⑤□□□ |⑥-⑦-|
⑦□②⑩ |⑧⑨⑩-|
49
⑤①②⑥ |①②③④|
⑦③④⑧ |⑤⑥⑦⑧|
⑨⑩⑪□ |⑨⑩⑪⑫⑬⑭|
⑫⑬⑭□ |--⑮⑯|
□⑮⑯□
□□□□
□□□□
□□□□
50
②⑦⑦② |①-②-|
①⑥④① |③④-⑤|
⑦□□⑦ |⑥---|
□③⑤□ |⑦---|
51
②□□② |①-②-|
①⑥④① |③④-⑤|
□①①□ |⑥---|
□③⑤□ |⑦---|
□□□□
□□□□
□⑦⑦□
□□□□
52
②①①② |①-②-|
①⑥④① |③④-⑤|
⑦□□⑦ |⑥---|
⑦③⑤⑦ |⑦---|
53
②□□② |①-②-|
①⑥④① |③④-⑤|
□①①□ |⑥---|
⑦③⑤⑦ |⑦---|
54
□□①④ |①--②|
⑥□②① |③-④-|
⑤□□□ |⑤-⑥-|
□③□□ |⑦---|
⑦⑦⑦□
□□□□
□□□□
□□□□
55
□□□□ |①-②-|
⑤□□③ |③---|
□①①② |④-⑤-|
④□□① |⑥---|
⑥□□□
□□□□
□⑥⑥□
□□□□
56
⑦①①④ |①--②|
⑥□②① |③-④-|
⑤□□□ |⑤-⑥-|
⑧③□⑧ |⑦-⑧-|
57
□⑥④□ |①②-③|
⑥①⑦④ |④-⑤⑥|
⑧③⑤② |-⑦⑧-|
□⑧②□ |⑨⑩--|
□□□□
□⑨□□
□□□⑩
□□⑩□
58
①□□① |①---|
□□□□ |----|
□①①□ |----|
□□□□ |----|
最終更新:2026年09月21日 14:13