ケロ⑨destiny / Silver Forest
BPM:172
Notes:913
1
①□□① |①---|
②□③□ |②---|
③□□□ |③---|
④□□□ |④---|
2
①□□□ |①---|
②□□□ |②---|
③□□① |③---|
④□③□ |④---|
3
□□①④ |①-②-|
□②⑤□ |③-④-|
③⑥□⑧ |⑤-⑥-|
⑦□□□ |⑦-⑧-|
4
□②□□ |①-②-|
③⑤⑥□ |③-④-|
□⑦⑧□ |⑤-⑥-|
□□①④ |⑦-⑧-|
5
①⑤⑥② |①②③④|
③⑦⑧④ |⑤⑥⑦⑧|
⑨⑬⑭⑩ |⑨⑩⑪⑫|
⑪⑮⑯⑫ |⑬⑭⑮⑯|
6
①⑤⑥② |①②③④|
③⑦⑧④ |⑤⑥⑦⑧|
⑨⑬⑭⑩ |⑨⑩⑪⑫|
⑪⑮⑯⑫ |⑬⑭⑮⑯|
7
①②④③ |①②③④|
⑤⑥⑧⑦ |⑤⑥⑦⑧|
⑨⑩⑫⑪ |⑨⑩⑪⑫|
⑬⑭⑯⑮ |⑬⑭⑮⑯|
8
①②④③ |①②③④|
⑤⑥⑧⑦ |⑤⑥⑦⑧|
⑨⑩⑫⑪ |⑨⑩⑪⑫|
⑬⑭⑯⑮ |⑬⑭⑮⑯|
9
①③③□ |①---|
□□□□ |--②-|
②④□② |③---|
□□□□ |--④-|
10
①④④□ |①--②|
③④④② |--③-|
②□④③ |④---|
□④④① |⑤-⑥-|
□□□□
□□□□
□□□□
⑥□□⑤
11
□□□① |①---|
④□□③ |--②-|
③□□④ |③--④|
□②②□ |--⑤-|
□□□⑤
□□□□
□□□□
⑤□□□
12
①□□□ |①---|
⑦⑥⑤④ |--②③|
②③□□ |④⑤⑥⑦|
□□□① |⑧-⑨-|
□□□□
□□□□
□□⑨□
□□□⑧
13
①①□③ |①---|
□④②□ |--②-|
□□⑤□ |③--④|
③□□□ |--⑤-|
14
①□⑥□ |①--②|
③⑤④② |--③-|
②④⑤③ |④--⑤|
□⑥□① |--⑥-|
15
①□□③ |①---|
□④②□ |②---|
□②⑤□ |③--④|
③□□① |--⑤-|
16
⑤④□⑤ |①-②-|
③□②③ |③-④-|
①□□① |⑤---|
□□□□ |----|
17
□③③□ |①---|
□①①④ |--②-|
②□□② |③---|
□□□□ |--④-|
18
④□□□ |①--②|
③③⑥□ |--③-|
②②②⑤ |④---|
①①①① |⑤-⑥-|
19
⑤①□□ |①---|
③□□④ |--②-|
④□□③ |③--④|
□②②⑤ |--⑤-|
20
□□□① |①---|
④⑤⑥⑦ |--②③|
□□③② |④⑤⑥⑦|
①□□□ |⑧-⑨-|
□□□□
□□□□
□⑨□□
⑧□□□
21
④④①① |①---|
□②③□ |--②③|
□⑥□□ |④-⑤-|
□□⑤⑤ |--⑥-|
22
□⑥□① |①--②|
②④⑤③ |--③-|
③⑤④② |④--⑤|
①□⑥□ |--⑥-|
23
③□□① |①---|
□②④□ |②---|
□⑤②□ |③--④|
①□□③ |--⑤-|
24
③④⑤③ |①---|
②⑤④② |②---|
①□□① |③-④-|
□□□□ |⑤---|
25
□⑩⑨⑧ |①②③④|
⑦⑬⑫⑪ |⑤⑥⑦-|
④⑤⑥⑭ |⑧⑨⑩⑪|
①②③□ |⑫⑬⑭-|
26
⑭⑧⑨⑩ |①②③④|
□⑪⑫⑬ |⑤⑥⑦-|
⑥⑤④□ |⑧⑨⑩⑪|
③②①⑦ |⑫⑬⑭-|
27
□⑩⑨⑧ |①②③④|
⑦⑬⑫⑪ |⑤⑥⑦-|
④⑤⑥⑭ |⑧⑨⑩⑪|
①②③□ |⑫⑬⑭-|
28
□⑦⑦□ |①②-③|
⑤□□⑥ |④-⑤⑥|
□③④□ |⑦---|
□①②□ |----|
29
⑧⑨⑩□ |①②③④|
⑪⑫⑬⑦ |⑤⑥⑦-|
⑭⑥⑤④ |⑧⑨⑩⑪|
□③②① |⑫⑬⑭-|
30
⑩⑨⑧⑭ |①②③④|
⑬⑫⑪□ |⑤⑥⑦-|
□④⑤⑥ |⑧⑨⑩⑪|
⑦①②③ |⑫⑬⑭-|
31
⑧⑨⑩□ |①②③④|
⑪⑫⑬⑦ |⑤⑥⑦-|
⑭⑥⑤④ |⑧⑨⑩⑪|
□③②① |⑫⑬⑭-|
32
③□□□ |①--②|
□□④② |--③-|
□④③□ |-④--|
①②□① |⑤---|
□□□⑤
⑤□□□
□□□⑤
⑤□□□
33
⑤⑦⑥□ |①--②|
□②□① |--③-|
□④③④ |④-⑤-|
□①□② |⑥-⑦-|
34
□⑥⑤□ |①--②|
①□②□ |--③-|
④③④□ |④-⑤-|
②□①□ |--⑥-|
35
□⑥③□ |①--②|
④②⑤① |--③-|
□③⑥□ |④--⑤|
⑤①④② |--⑥-|
36
①□⑤① |①---|
②④□③ |②---|
①□⑤① |③-④-|
□④□□ |⑤---|
37
□⑥⑦⑤ |①--②|
①□②□ |--③-|
④③④□ |④-⑤-|
②□①□ |⑥-⑦-|
38
□⑤⑥□ |①--②|
□②□① |--③-|
□④③④ |④-⑤-|
□①□② |--⑥-|
39
④□□① |①--②|
①④①④ |--③-|
②□□⑤ |④--⑤|
⑥①④③ |--⑥-|
40
□□□① |①-②-|
③□②□ |③-④-|
□④⑤□ |--⑤-|
□⑤□□ |⑥---|
⑥□□⑥
□□□□
□□□□
□□□□
41
□⑥⑦⑤ |①--②|
①□②□ |--③-|
④③④□ |④-⑤-|
②□①□ |⑥-⑦-|
42
□⑤⑥□ |①--②|
□②□① |--③-|
□④③④ |④-⑤-|
□①□② |--⑥-|
43
□③⑥□ |①--②|
①⑤②④ |--③-|
□⑥③□ |④--⑤|
②④①⑤ |--⑥-|
44
①□□① |①---|
□□□② |②---|
①④□① |③-④-|
③□④□ |⑤---|
⑤□□⑤
□□□□
□□□□
□□□□
45
⑤⑦⑥□ |①--②|
□②□① |--③-|
□④③④ |④-⑤-|
□①□② |⑥-⑦-|
46
□⑥⑤□ |①--②|
①□②□ |--③-|
④③④□ |④-⑤-|
②□①□ |--⑥-|
47
①□□④ |①--②|
④①④① |--③-|
⑤□□② |④--⑤|
③④①⑥ |--⑥-|
48
①□□□ |①-②-|
□②□③ |③-④-|
□⑤④□ |--⑤-|
□□⑤□ |⑥---|
⑥□□⑥
□□□□
□□□□
□□□□
49
□②①□ |①---|
□①②③ |②---|
□④③□ |③---|
□□④□ |④---|
50
□②□□ |①---|
□①②③ |②---|
①□③□ |③---|
□③□③ |----|
51
□②□□ |①---|
□①②③ |②---|
①④③□ |③---|
□③④③ |④---|
52
□②①□ |①---|
□①②③ |②---|
□□③□ |③---|
□□□□ |----|
53
□□□① |①---|
①□①□ |----|
□①□① |----|
①□□□ |----|
54
□□□□ |----|
□□□□ |----|
□□□□ |----|
□□□□ |----|
55
□□□□ |----|
□□□□ |----|
□□□□ |----|
□□□① |①---|
56
①③④② |①②③④|
⑦⑤⑥⑧ |⑤⑥⑦⑧|
⑨⑪⑫⑩ |⑨⑩⑪⑫|
⑮⑬⑭⑯ |⑬⑭⑮⑯|
57
①③④② |①②③④|
⑦⑤⑥⑧ |⑤⑥⑦⑧|
⑨⑪⑫⑩ |⑨⑩⑪⑫|
⑮⑬⑭⑯ |⑬⑭⑮⑯|
58
②①③④ |①②③④|
⑥⑤⑦⑧ |⑤⑥⑦⑧|
⑩⑨⑪⑫ |⑨⑩⑪⑫|
⑭⑬⑮⑯ |⑬⑭⑮⑯|
59
①③④② |①--②|
②①□□ |--③-|
□□③□ |-④--|
□④□□ |⑤---|
□□□□
□⑤□⑤
□□□□
⑤□⑤□
60
①②□① |①--②|
③⑤④⑤ |③-④-|
⑤①□② |⑤-⑥-|
⑦⑥⑦⑧ |⑦-⑧-|
61
①①□② |①--②|
③⑤④⑤ |③-④-|
⑤②□① |⑤-⑥-|
⑦□⑥⑧ |⑦-⑧-|
62
⑤①④② |①--②|
□③⑥□ |--③-|
④②⑤① |④--⑤|
□⑥③□ |--⑥-|
63
□□⑤□ |①---|
①④□① |②---|
□②⑤□ |③-④-|
①④③① |⑤---|
64
①②□① |①--②|
③⑤④⑤ |③-④-|
⑤①□② |⑤-⑥-|
⑦⑥⑦⑧ |⑦-⑧-|
65
①①□② |①--②|
③⑤④⑤ |③-④-|
⑤②□① |⑤-⑥-|
⑦□⑥⑧ |⑦-⑧-|
66
④②⑤① |①--②|
①□□④ |--③-|
⑥④①③ |④--⑤|
□①④□ |--⑥-|
67
□⑤□□ |①-②-|
④③⑤□ |③-④-|
□□①② |--⑤-|
⑥□□⑥ |⑥---|
68
①□②① |①--②|
⑤④⑤③ |③-④-|
②□①⑤ |⑤-⑥-|
⑧⑦⑥⑦ |⑦-⑧-|
69
②□①① |①--②|
⑤④⑤③ |③-④-|
①□②⑤ |⑤-⑥-|
⑧⑥□⑦ |⑦-⑧-|
70
②④①⑤ |①--②|
□⑥③□ |--③-|
①⑤②④ |④--⑤|
□③⑥□ |--⑥-|
71
□④□□ |①---|
①□④① |②---|
□③②□ |③-④-|
①□□① |⑤---|
□□□□
□□□□
□□□□
⑤□□⑤
72
①□②① |①--②|
⑤④⑤③ |③-④-|
②□①⑤ |⑤-⑥-|
⑧⑦⑥⑦ |⑦-⑧-|
73
②□①① |①--②|
⑤④⑤③ |③-④-|
①□②⑤ |⑤-⑥-|
⑧⑥□⑦ |⑦-⑧-|
74
①⑤②④ |①--②|
④□□① |--③-|
③①④⑥ |④--⑤|
□④①□ |--⑥-|
75
□□⑤□ |①-②-|
□⑤③④ |③-④-|
②①□□ |--⑤-|
⑥□□⑥ |⑥---|
76
□□□□ |①---|
□□□□ |----|
□①①□ |----|
□①①□ |----|
77
⑩⑫⑪□ |①②③④|
④③②① |⑤⑥⑦⑧|
⑧⑦⑥⑤ |⑨-⑩-|
□□□⑨ |⑪-⑫-|
78
□⑪⑩□ |①②③④|
①②③④ |⑤⑥⑦⑧|
⑤⑥⑦⑧ |⑨-⑩-|
⑨□□□ |--⑪-|
79
⑫⑬⑭□ |①②③④|
④③②① |⑤⑥⑦-|
⑧⑨⑩⑪ |⑧⑨⑩⑪|
□⑦⑥⑤ |⑫⑬⑭-|
80
⑥□□⑥ |①-②-|
□□②① |③-④-|
③④⑤□ |--⑤-|
□⑤□□ |⑥---|
81
□⑪⑫⑩ |①②③④|
①②③④ |⑤⑥⑦⑧|
⑤⑥⑦⑧ |⑨-⑩-|
⑨□□□ |⑪-⑫-|
82
□⑩⑪□ |①②③④|
④③②① |⑤⑥⑦⑧|
⑧⑦⑥⑤ |⑨-⑩-|
□□□⑨ |--⑪-|
83
□⑭⑬⑫ |①②③④|
①②③④ |⑤⑥⑦-|
⑪⑩⑨⑧ |⑧⑨⑩⑪|
⑤⑥⑦□ |⑫⑬⑭-|
84
⑥□□⑥ |①-②-|
①②□□ |③-④-|
□⑤④③ |--⑤-|
□□⑤□ |⑥---|
85
□②□□ |①-②-|
□⑤②③ |--③-|
⑤④③□ |--④-|
①□④① |--⑤-|
86
□□④□ |--①-|
③④①□ |--②-|
□③②① |--③-|
□②□□ |--④-|
87
①□□① |①---|
□□□□ |----|
□□□□ |----|
□□□□ |----|
最終更新:2026年09月21日 14:13