アットウィキロゴ
はちゃめちゃわちゃライフ! / FRUITS ZIPPER
BPM:176
Notes:956
1
①③⑤① |①-②-|
□□□□ |③-④-|
□②④⑥ |⑤-⑥-|
□□□□ |--⑦-|
⑦□□□
□□□□
□□□□
□□□□
2
□□⑦□ |①-②-|
⑥④②⑦ |③-④-|
□□□□ |⑤-⑥-|
□⑤③① |⑦---|
3
①⑦⑦① |①-②-|
□③⑤□ |③-④-|
□□□□ |⑤-⑥-|
②④⑥□ |--⑦-|
4
⑤□□⑤ |①-②-|
□④⑥② |③-④-|
□⑥□□ |⑤---|
□③□① |⑥---|
5
⑦②④⑥ |①-②-|
□□□□ |③-④-|
□□③⑤ |⑤-⑥-|
①□□① |--⑦-|
6
□□⑦□ |①-②-|
⑥④②⑦ |③-④-|
□□□□ |⑤-⑥-|
□⑤③① |⑦---|
7
①⑦⑦① |①-②-|
□③⑤□ |③-④-|
□□□□ |⑤-⑥-|
②④⑥□ |--⑦-|
8
⑤⑤⑤⑤ |①---|
①□□② |②---|
①③③② |③---|
③④④③ |④-⑤-|
9
□⑥□⑥ |--①-|
□□②① |②-③-|
④③⑤□ |④-⑤-|
□□□⑤ |--⑥-|
10
①⑤□⑤ |--①-|
②□⑤□ |②-③-|
□③□□ |④---|
④□④□ |--⑤-|
11
□□④□ |--①-|
□③□⑤ |②-③-|
□□②⑥ |④-⑤-|
⑦①⑦□ |⑥-⑦-|
12
□②④□ |--①-|
②□□④ |②-③-|
□③①□ |④-⑤-|
□⑦⑥⑤ |⑥-⑦-|
13
④□□□ |①---|
□①⑥⑤ |②-③-|
□④③② |④---|
①□□□ |⑤-⑥-|
14
□①②□ |①---|
□③□⑥ |②-③-|
①□④□ |④-⑤-|
□⑤□⑥ |⑥-⑦-|
□⑦□□
□□□□
⑦□□□
□□□□
15
⑥□□① |--①-|
□□②□ |②-③-|
⑥□□③ |④-⑤-|
□⑤④□ |⑥---|
16
⑥□①③ |①-②-|
②⑦□① |③-④-|
□□③□ |⑤-⑥-|
④⑦⑤⑤ |⑦---|
17
□□④□ |①---|
⑤⑥①④ |②-③-|
②③□① |④---|
□□□□ |⑤-⑥-|
18
□②⑦① |①---|
⑥□③□ |②-③-|
□④①⑦ |④-⑤-|
⑥□⑤□ |⑥-⑦-|
19
①□□⑥ |--①-|
□②□□ |②-③-|
③□□⑥ |④-⑤-|
□④⑤□ |⑥---|
20
④①②④ |①---|
□③□□ |②---|
□③③□ |③---|
①③③② |④---|
21
□□□□ |①-②-|
□⑤⑥□ |③-④-|
②□□④ |⑤-⑥-|
①⑦⑧③ |⑦-⑧-|
22
⑥①①⑥ |①-②-|
①⑤④① |--③-|
□②②□ |④-⑤-|
③□□③ |⑥-⑦-|
□□⑦□
□□□□
□□□□
□□□□
23
□③□□ |①-②-|
③□□④ |--③-|
□□⑤① |④-⑤-|
⑦②□⑥ |⑥-⑦-|
24
□③□□ |①-②-|
□⑤②⑤ |③-④-|
④①□□ |⑤---|
□□⑤□ |----|
25
①□⑧□ |①-②-|
②□□⑦ |③-④-|
□③⑥□ |⑤-⑥-|
④□□⑤ |⑦-⑧-|
26
①□□⑦ |①-②-|
□②⑥□ |③-④-|
③⑧⑧⑤ |⑤-⑥-|
□⑧⑧④ |⑦-⑧-|
27
①□③□ |--①-|
□②□④ |②-③-|
□⑦□⑤ |④-⑤-|
□□⑥□ |⑥-⑦-|
28
□①②□ |①---|
③③③③ |②---|
□⑥⑤④ |③-④⑤|
①□□② |⑥-⑦⑧|
□□□⑩ |⑨-⑩-|
□□□□
□□□□
⑦⑧⑨□
29
①□⑤□ |①-②-|
□③②⑤ |③---|
□□□□ |④-⑤-|
④⑦⑥□ |--⑥⑦|
□□□□ |⑧⑨⑩⑪|
□⑪⑩□
□⑨⑧□
□□□□
30
②⑥□④ |①-②-|
⑦⑦⑦⑦ |③-④-|
②⑥□④ |⑤-⑥-|
③□⑤① |⑦---|
31
①⑤⑤③ |①-②-|
⑥□□⑥ |③-④-|
①⑤⑤③ |⑤---|
②⑥⑥④ |⑥---|
32
⑤□□□ |①-②-|
□②①⑥ |③-④-|
③⑦□□ |⑤-⑥-|
□□⑧④ |⑦-⑧-|
33
③①□□ |①-②-|
①③□④ |--③-|
□⑤□② |④-⑤-|
□□⑥□ |⑥---|
34
④□⑥② |①-②-|
⑦⑦⑦⑦ |③-④-|
④□⑥② |⑤-⑥-|
①⑤□③ |⑦---|
35
③⑤⑤① |①-②-|
⑥⑦⑦⑥ |③-④-|
③⑤⑤① |⑤---|
④⑥⑥② |⑥-⑦-|
36
□④③□ |--①-|
□□□□ |②-③-|
⑤□⑦② |④-⑤-|
□⑥□① |⑥-⑦-|
37
①⑦⑥⑤ |①-②③|
①④③② |④-⑤⑥|
□□⑩⑧ |⑦-⑧-|
□⑨□□ |⑨-⑩-|
38
①⑤⑦③ |①-②-|
□□④□ |③-④-|
⑥②□□ |⑤-⑥-|
③⑦⑤① |⑦---|
39
①□⑥③ |①-②-|
⑤⑥④⑤ |③-④-|
⑤②⑥⑤ |⑤---|
③⑥□① |⑥---|
40
①③□④ |①-②-|
③□⑤□ |--③-|
□⑥□□ |④-⑤-|
⑦□□② |⑥-⑦-|
41
②③□□ |①-②-|
③□□④ |--③-|
□⑤□④ |④---|
□□⑤① |⑤---|
42
③⑦⑤① |①-②-|
□④□□ |③-④-|
□□②⑥ |⑤-⑥-|
①⑤⑦③ |⑦---|
43
③⑥□① |①-②-|
⑤④⑥⑤ |③-④-|
⑤⑥②⑤ |⑤---|
①□⑥③ |⑥-⑦-|
□□□⑦
□□□□
□□□□
⑦□□□
44
□□①⑦ |--①-|
□②□□ |②-③-|
⑥□③□ |④-⑤-|
□⑤□④ |⑥-⑦-|
45
□①⑧□ |①-②③|
①④③② |④-⑤⑥|
⑨□□⑩ |⑦-⑧-|
□⑦⑥⑤ |⑨-⑩-|
46
□⑤□④ |①-②-|
□③⑥□ |③-④-|
□⑦②⑧ |⑤-⑥-|
①□⑧□ |⑦-⑧-|
47
□③①□ |--①-|
④□□⑦ |②-③-|
□⑤②□ |④-⑤-|
⑥□⑦□ |⑥-⑦-|
48
□②□③ |--①-|
⑥□④□ |②---|
②⑤①□ |③-④-|
⑥□□① |⑤-⑥-|
49
②③④□ |①-②③|
□⑦⑥⑤ |④-⑤⑥|
□□⑧① |⑦-⑧-|
□⑨□① |⑨-⑩-|
□□□□
□□□□
□□□□
□□□⑩
50
①□②□ |①---|
⑦□□③ |②-③-|
①⑥□④ |④-⑤-|
⑦□⑤□ |⑥-⑦-|
51
①⑦⑦□ |--①-|
□②□⑥ |②-③-|
③□⑤□ |④-⑤-|
□④□□ |⑥-⑦-|
52
□⑥⑥① |--①-|
⑤□②□ |--②-|
④□□① |③-④-|
③□②□ |⑤-⑥-|
53
④□□□ |--①-|
□□□① |②-③-|
□□□② |----|
③③③□ |--④-|
54
⑥②□□ |①---|
③⑥□① |②-③-|
□④□⑤ |④-⑤-|
□□⑤① |--⑥-|
55
□⑤③① |--①-|
⑥□□□ |②-③-|
□④②⑦ |④-⑤-|
□□⑦□ |⑥-⑦-|
56
□⑥②□ |--①-|
⑥□□③ |--②-|
①⑤④□ |③-④-|
□①□□ |⑤-⑥-|
57
②□□① |--①-|
□□□□ |②-③-|
②□□① |----|
□③③□ |----|
58
□①①① |①---|
②②②□ |②---|
□③③③ |③---|
④④④□ |④---|
59
④□□② |①-②-|
③□⑥① |③-④-|
⑦□⑤□ |⑤-⑥-|
□⑦□□ |⑦---|
60
□□⑤□ |①-②-|
□④□⑤ |③-④-|
□③□② |⑤---|
□□□① |----|
61
⑧□□⑦ |①-②-|
⑥□□⑤ |③-④-|
④□□③ |⑤-⑥-|
②□□① |⑦-⑧-|
62
□⑧⑦□ |①-②-|
□⑥⑤□ |③-④-|
□④③□ |⑤-⑥-|
□②①□ |⑦-⑧-|
63
□⑦□□ |①-②-|
⑦□⑥□ |③-④-|
④□⑤② |⑤-⑥-|
③□□① |⑦---|
64
□□⑤□ |①-②-|
□□□⑤ |③-④-|
□④□② |⑤---|
□③□① |----|
65
⑧□□⑦ |①-②-|
⑥□□⑤ |③-④-|
④□□③ |⑤-⑥-|
②□□① |⑦-⑧-|
66
□⑧⑦□ |①-②-|
□⑥⑤□ |③-④-|
□④③□ |⑤-⑥-|
□②①□ |⑦-⑧-|
67
⑦□□□ |①-②-|
□⑦□⑤ |③-④-|
③□⑥① |⑤-⑥-|
□④②□ |⑦---|
68
□□⑤□ |①-②-|
③□□⑤ |③-④-|
□④□① |⑤---|
□□②□ |----|
69
⑧□□⑦ |①-②-|
⑥□□⑤ |③-④-|
④□□③ |⑤-⑥-|
②□□① |⑦-⑧-|
70
□⑧⑦□ |①-②-|
□⑥⑤□ |③-④-|
□④③□ |⑤-⑥-|
□②①□ |⑦-⑧-|
71
□□□⑤ |①-②-|
③□⑥□ |③-④-|
⑦④□① |⑤-⑥-|
□⑦②□ |⑦---|
72
□⑤⑤□ |①-②-|
③□□① |③-④-|
⑥□□⑦ |⑤-⑥-|
④⑥⑦② |--⑦-|
73
□⑤⑦② |①---|
⑥①①④ |②-③-|
□③□□ |④-⑤-|
□□□□ |⑥-⑦-|
74
⑩⑨⑧□ |①---|
⑦⑥⑤□ |②-③-④-|
④③②□ |⑤-⑥-⑦-|
①①①① |⑧-⑨-⑩-|
75
□⑫⑪⑩ |①-②-③-|
□⑨⑧⑦ |④-⑤-⑥-|
□⑥⑤④ |⑦-⑧-⑨-|
□③②① |⑩-⑪-⑫-|
76
□□□□ |①---|
□□□□ |----|
□□□□ |----|
□①①□ |----|
77
□①②① |①---|
□③①□ |--②-|
□□①□ |----|
□②□□ |③-④-|
□□□□
□□□□
□□④□
□□□□
78
②⑥□④ |①-②-|
⑦⑦⑦⑦ |③-④-|
②⑥□④ |⑤-⑥-|
③□⑤① |⑦---|
79
①⑥⑥③ |①-②-|
□□□□ |③-④-|
①⑤⑤③ |⑤---|
②⑥⑥④ |⑥---|
80
⑤□□□ |①-②-|
□②①⑥ |③-④-|
③⑦□□ |⑤-⑥-|
□□⑧④ |⑦-⑧-|
81
③①□□ |①-②-|
①③□④ |--③-|
□⑤□② |④-⑤-|
□□⑥□ |⑥---|
82
④□⑥② |①-②-|
⑦⑦⑦⑦ |③-④-|
④□⑥② |⑤-⑥-|
①⑤□③ |⑦---|
83
③⑥⑥① |①-②-|
⑦□□⑦ |③-④-|
③⑤⑤① |⑤---|
④⑥⑥② |⑥-⑦-|
84
□□□□ |--①-|
□③②□ |②-③-|
④□⑥① |④-⑤-|
□⑦□⑤ |⑥-⑦-|
85
①⑦⑥⑤ |①-②③|
①④③② |④-⑤⑥|
□□⑩⑧ |⑦-⑧-|
□⑨□□ |⑨-⑩-|
86
①⑤⑦③ |①-②-|
□⑦④□ |③-④-|
⑥②⑦□ |⑤-⑥-|
③⑦⑤① |⑦---|
87
①⑥⑥③ |①-②-|
⑤□④⑤ |③-④-|
⑤②□⑤ |⑤---|
③⑥⑥① |⑥---|
88
①□□④ |①-②-|
③□⑤□ |--③-|
□⑥□□ |④-⑤-|
⑦□□② |⑥-⑦-|
89
②③□□ |①-②-|
③□④□ |--③-|
□⑤□④ |④---|
□□⑤① |⑤---|
90
③⑦⑤① |①-②-|
□④⑦□ |③-④-|
□⑦②⑥ |⑤-⑥-|
①⑤⑦③ |⑦---|
91
③⑥⑥① |①-②-|
⑤④⑦⑤ |③-④-|
⑤⑦②⑤ |⑤---|
①⑥⑥③ |⑥-⑦-|
92
④□□⑤ |--①-|
□③□□ |②-③-|
⑥□②⑦ |④-⑤-|
□□□① |⑥-⑦-|
93
□①⑧□ |①-②③|
①④③② |④-⑤⑥|
⑨□□⑩ |⑦-⑧-|
□⑦⑥⑤ |⑨-⑩-|
94
①③⑤① |①-②-|
□□□⑥ |③-④-|
□②④□ |⑤-⑥-|
□□□□ |--⑦-|
⑦□□□
□□□□
□□□□
□□□□
95
□□⑦□ |①-②-|
□④②⑦ |③-④-|
⑥□□□ |⑤-⑥-|
①⑤③① |⑦---|
96
①⑦⑦① |①-②-|
□③⑤□ |③-④-|
□□□□ |⑤-⑥-|
②④⑥□ |--⑦-|
97
⑥□□⑤ |①-②-|
□②④□ |③-④-|
①③□① |⑤---|
□⑥⑤□ |⑥---|
98
⑦②④⑥ |①-②-|
⑦□□□ |③-④-|
□□③⑤ |⑤-⑥-|
①□□① |--⑦-|
99
□□⑦□ |①-②-|
□④②⑦ |③-④-|
⑥□□□ |⑤-⑥-|
①⑤③① |⑦---|
100
①⑦⑦① |①-②-|
□③⑤□ |③-④-|
□□□□ |⑤-⑥-|
②④⑥□ |--⑦-|
101
⑤⑤⑤⑤ |①---|
①□□② |②---|
①③③② |③---|
③④④③ |④-⑤-|
最終更新:2026年09月21日 14:13