B.B.K.K.B.K.K. / nora2r
BPM:170
Notes:979
1
□□□□ |①---|
□③④□ |②---|
□③④□ |③---|
①①②② |④---|
2
□□□□ |①---|
③□□② |②---|
③□□② |③---|
①①□□ |----|
3
□□□□ |①---|
□④③□ |②---|
□④③□ |③---|
②②①① |④---|
4
□□□□ |①---|
②□□③ |②---|
②□□③ |③---|
□□①① |----|
5
□□②② |①---|
□③□□ |②---|
□③④□ |③---|
①①④□ |④---|
6
①①□□ |①---|
□□□② |②---|
□③□② |③---|
□③□□ |----|
7
②②□③ |①---|
□□□③ |②---|
④□□□ |③---|
④□①① |④---|
8
④□□④ |----|
④②①④ |①-②-|
□□□□ |③---|
③③③③ |④---|
9
□⑤①□ |①--②|
⑤②④□ |③-④-|
①□□③ |⑤-⑥-|
□□③⑥ |⑦-⑧-|
□□⑦□
□□□⑦
□□□□
⑧□□□
10
□⑦⑤① |①--②|
⑦④②⑤ |③-④-|
③①□□ |⑤-⑥-|
⑥③□⑧ |⑦-⑧-|
11
①⑤⑦□ |①--②|
⑤②④⑦ |③-④-|
□□①③ |⑤-⑥-|
⑧□③⑥ |⑦-⑧-|
12
⑥□□① |①--②|
⑥④②□ |③-④-|
③①□□ |⑤---|
□③⑤⑤ |⑥---|
13
□⑦⑤① |①--②|
⑦④②⑤ |③-④-|
③①□□ |⑤-⑥-|
⑥③□⑧ |⑦-⑧-|
14
①⑤⑦□ |①--②|
⑤②④⑦ |③-④-|
□□①③ |⑤-⑥-|
⑧□③⑥ |⑦-⑧-|
15
□⑦⑤① |①--②|
⑦④②⑤ |③-④-|
③①□□ |⑤-⑥-|
⑥③□⑧ |⑦-⑧-|
16
①□□② |①---|
□□□□ |----|
□②①□ |②---|
□□□□ |----|
17
①④②□ |①-②③|
④□③⑤ |④⑤-⑥|
⑨□⑥⑦ |-⑦-⑧|
□⑨⑧⑩ |⑨⑩⑪-|
⑪□□□
□□□□
□□□□
□□□□
18
□②④① |①-②③|
⑤③□④ |④⑤-⑥|
⑦⑥□⑨ |-⑦-⑧|
⑩⑧⑨□ |⑨⑩⑪-|
□□□⑪
□□□□
□□□□
□□□□
19
①④②□ |①-②③|
④□③⑤ |④⑤-⑥|
⑨□⑥⑦ |-⑦-⑧|
□⑨⑧⑩ |⑨⑩⑪-|
⑪□□□
□□□□
□□□□
□□□□
20
⑧②④① |①-②③|
⑤③□④ |④⑤-⑥|
⑧⑥⑦⑦ |⑦---|
□□□□ |⑧---|
21
□②④① |①-②③|
⑤③□④ |④⑤-⑥|
⑦⑥□⑨ |-⑦-⑧|
⑩⑧⑨□ |⑨⑩⑪-|
□□□⑪
□□□□
□□□□
□□□□
22
①④②□ |①-②③|
④□③⑤ |④⑤-⑥|
⑨□⑥⑦ |-⑦-⑧|
□⑨⑧⑩ |⑨⑩⑪-|
⑪□□□
□□□□
□□□□
□□□□
23
□②④① |①-②③|
⑤③□④ |④⑤-⑥|
⑦⑥□⑨ |-⑦-⑧|
⑩⑧⑨□ |⑨⑩⑪-|
□□□⑪
□□□□
□□□□
□□□□
24
①□□□ |①---|
□①□□ |----|
□□①□ |----|
□□□① |②---|
②□□②
□□□□
□②②□
□□□□
25
⑤□□⑦ |①-②-|
⑤④②⑦ |③-④-|
□⑧⑥□ |⑤-⑥-|
①①③③ |⑦-⑧-|
26
⑤⑧□⑥ |①-②-|
⑤④②□ |③-④-|
□□⑦③ |⑤-⑥-|
①①□③ |⑦-⑧-|
27
⑤□□⑦ |①-②-|
⑤④②⑦ |③-④-|
□⑧⑥□ |⑤-⑥-|
①①③③ |⑦-⑧-|
28
⑤④②⑦ |①-②-|
⑤□□⑦ |③-④-|
□⑧⑥□ |⑤-⑥-|
①①③③ |⑦-⑧-|
29
⑦□□⑤ |①-②-|
⑦②④⑤ |③-④-|
□⑥⑧□ |⑤-⑥-|
③③①① |⑦-⑧-|
30
⑥□⑧⑤ |①-②-|
□②④⑤ |③-④-|
③⑦□□ |⑤-⑥-|
③□①① |⑦-⑧-|
31
⑦⑥⑧⑤ |①-②-|
⑦②④⑤ |③-④-|
□□□□ |⑤-⑥-|
③③①① |⑦-⑧-|
32
⑥⑦⑤④ |①---|
⑥⑦⑤④ |②-③-|
②③□① |④-⑤-|
②③□① |⑥-⑦-|
33
⑤□□⑦ |①-②-|
□⑥⑧□ |③-④-|
⑤②④⑦ |⑤-⑥-|
①③①③ |⑦-⑧-|
34
⑤□□⑦ |①-②-|
□⑥⑧③ |③-④-|
⑤②④□ |⑤-⑥-|
①□①③ |⑦-⑧-|
35
⑦□□⑤ |①-②-|
□⑧⑥□ |③-④-|
⑦④②⑤ |⑤-⑥-|
③①③① |⑦-⑧-|
36
⑦□□⑤ |①-②-|
④⑥⑧② |③-④-|
⑦□□⑤ |⑤-⑥-|
③①③① |⑦-⑧-|
37
□②②□ |①---|
⑦⑧⑥⑤ |②-③④|
⑦④③⑤ |⑤--⑥|
□①①□ |⑦-⑧-|
38
⑥□□③ |①--②|
⑥□⑤⑦ |③-④⑤|
⑧②④③ |⑥-⑦-|
①□①⑨ |⑧-⑨-|
39
⑨①②⑩ |①②③④|
⑪③④⑫ |⑤⑥⑦⑧|
⑬⑤⑥⑭ |⑨⑩⑪⑫|
⑮⑦⑧⑯ |⑬⑭⑮⑯|
40
④□□④ |----|
④①②④ |①-②-|
□□□□ |③---|
□③③□ |④---|
41
□□①□ |①---|
□□□⑤ |----|
②①④□ |②-③-|
□③□□ |④-⑤-|
42
□□①□ |①---|
①□□□ |----|
□④□② |②-③-|
□□③□ |④-⑤-|
□□□□
⑤□□□
□□□□
□□□□
43
□①□□ |①---|
□②③① |----|
□□④□ |②-③-|
□⑤□□ |④-⑤-|
44
□③□□ |①---|
②□④□ |--②-|
①□□⑤ |③-④-|
□□①□ |⑤-⑥-|
□□□□
□□□□
□□□□
□□⑥□
45
□□□□ |①---|
□□□① |----|
□①□② |②-③-|
□□③□ |④-⑤-|
□□□□
⑤□□□
□④□□
□□□□
46
□①□□ |①---|
□□□① |----|
②□④□ |②-③-|
□③□□ |④-⑤-|
□□□□
□□□⑤
□□□□
□□□□
47
□□①□ |①---|
①③②□ |----|
□④□□ |②-③-|
□□⑤□ |④-⑤-|
48
□□③□ |①---|
□④□② |--②-|
⑤□□① |③-④-|
□①□□ |⑤-⑥-|
□□□□
□□□□
□□□□
□⑥□□
49
①⑥□□ |①---|
②□⑤□ |②---|
③□①④ |③-④-|
⑤□③□ |⑤-⑥-|
50
①□□⑥ |①---|
②□⑤① |②---|
③④□□ |③-④-|
⑤□③□ |⑤-⑥-|
51
①□□□ |①---|
②□④③ |②---|
③⑤□① |③-④-|
⑤□⑥□ |⑤-⑥-|
52
①□③□ |①---|
②⑥□④ |②-③-|
④□⑤① |④-⑤-|
⑥□□⑦ |⑥-⑦-|
53
①①□② |①-②-|
④□③③ |③-④-|
⑤⑤□⑥ |⑤-⑥-|
⑧□⑦⑦ |⑦-⑧-|
54
②□①① |①-②-|
③③□④ |③-④-|
⑥□⑤⑤ |⑤-⑥-|
⑦⑦□⑧ |⑦-⑧-|
55
⑦①②⑧ |①②③④|
③⑬⑭④ |⑤⑥⑦⑧|
⑪⑤⑥⑫ |⑨⑩⑪⑫|
⑮⑨⑩⑯ |⑬⑭⑮⑯|
56
□①□□ |①---|
□□□□ |----|
□①□□ |----|
□□□□ |----|
57
⑦□□⑤ |①-②-|
⑧□□⑥ |③-④-|
⑦④②⑤ |⑤-⑥-|
①③①③ |⑦-⑧-|
58
□③□□ |①-②-|
□④□⑤ |③-④-|
⑦③②⑥ |⑤-⑥-|
①⑧①⑤ |⑦-⑧-|
59
①③①③ |①-②-|
⑦④②⑤ |③-④-|
⑧□□⑥ |⑤-⑥-|
⑦□□⑤ |⑦-⑧-|
60
①③①③ |①-②-|
⑦④②⑤ |③-④-|
⑧□□⑥ |⑤-⑥-|
⑦□□⑤ |⑦-⑧-|
61
①①①⑤ |①-②-|
⑦④⑧⑤ |③-④-|
⑦⑥②⑤ |⑤-⑥-|
⑦③③③ |⑦-⑧-|
62
①①①③ |①-②-|
⑤⑦⑥③ |③-④-|
⑤④②③ |⑤-⑥-|
⑤□□□ |⑦-⑧-|
□□□□
□□□□
□□⑧□
□□□□
63
⑤①①① |①-②-|
⑤□④⑦ |③-④-|
⑤②⑥⑦ |⑤-⑥-|
③③③⑦ |⑦-⑧-|
□⑧□□
□□□□
□□□□
□□□□
64
④□②⑥ |①---|
④①②⑥ |②-③-|
⑤①③⑦ |④-⑤-|
⑤①③⑦ |⑥-⑦-|
65
□①①□ |①--②|
③④②④ |--③-|
□□□□ |-④--|
③□②□ |⑤---|
⑤□⑤□
□□□□
□□□□
□□□□
66
□⑤□□ |①--②|
□③④③ |--③-|
②⑤②□ |④---|
□①④① |⑤---|
67
①□③① |①--②|
□②□□ |--③-|
④④③□ |④-⑤-|
□②⑤⑤ |⑥-⑦-|
⑥□□□
⑥□□⑦
□□□⑦
□□□□
68
⑤③②④ |①-②-|
□①①□ |-③--|
□③②□ |④--⑤|
⑤□□④ |--⑥-|
□□⑥□
□□□□
□□⑥□
□□□□
69
□②□□ |①--②|
①□③① |--③-|
⑤②⑤□ |-④--|
□④③④ |⑤---|
70
□①④① |①--②|
②□②□ |--③-|
□③□③ |④---|
□□④□ |⑤---|
□⑤□□
□□□□
□□□□
□⑤□□
71
①□□① |①---|
□①①□ |----|
□□□□ |----|
□□□□ |----|
72
③②①⑧ |①-②-|
①④⑧② |③-④-⑤-|
⑦⑧⑤⑥ |⑥-⑦-|
⑧⑥⑦□ |⑧---|
73
□①⑤⑧ |①-②③|
①④□⑤ |--④-|
□⑦③⑧ |⑤-⑥⑦|
⑥④□② |--⑧-|
74
□①□□ |①-②③|
①③□④ |--④-|
□⑦②⑧ |⑤⑥⑦⑧|
⑤□⑥④ |⑨⑩⑪⑫|
□⑪□⑫
⑨□⑩□
□□□□
□□□□
75
①□⑤□ |①-②③|
□□□⑤ |--④-|
①⑥③□ |⑤-⑥⑦|
④④⑦② |--⑧-|
□□□□
⑧□□□
⑧□□□
□□□□
76
⑥②⑤① |①-②③|
□⑧③⑦ |--④-|
⑩④⑨① |⑤⑥⑦⑧|
④⑫□⑪ |⑨⑩⑪⑫|
77
⑧⑤□① |①-②③|
⑤□④□ |--④-|
⑧③⑦① |⑤-⑥⑦|
②□④⑥ |--⑧-|
78
□④①□ |①-②③|
④□□① |--④-|
⑧②⑦□ |⑤⑥⑦⑧|
□⑥③⑤ |⑨⑩⑪⑫|
⑫□⑪□
□⑩□⑨
□□□□
□□□□
79
□⑤□① |①-②③|
⑤□□□ |--④-|
□③⑥① |⑤-⑥⑦|
②⑦④④ |--⑧-|
□□□□
□□□⑧
□□□⑧
□□□□
80
①⑨②⑩ |①-②③|
⑦③⑧□ |--④-|
①⑪④□ |⑤⑥⑦⑧|
⑤□⑥④ |-⑨⑩⑪|
81
③⑥①⑥ |①--②|
⑤③⑤① |--③-|
③⑥②④ |④--⑤|
⑤②④② |--⑥-|
82
③⑩①⑪ |①--②|
⑧②⑨① |--③-|
③⑥③⑦ |④⑤⑥⑦|
④②⑤② |⑧⑨⑩⑪|
83
②⑤③⑤ |①--②|
⑤①⑥③ |--③-|
③⑥②④ |④--⑤|
⑥①④② |--⑥-|
84
①④②⑤ |①--②|
⑥②⑦③ |--③-|
③⑧③⑨ |④⑤⑥⑦|
⑩②⑪① |⑧⑨⑩⑪|
85
①⑤③⑦ |①-②-|
⑤①⑦③ |③-④-|
□⑧□⑥ |⑤-⑥-|
□④□② |⑦-⑧-|
86
①□□⑤ |①-②-|
□④⑥③ |③-④-|
③□②⑦ |⑤-⑥-|
⑤⑦□① |⑦-⑧-|
□□□□
□□□□
□□□□
□□□⑧
87
⑦①②⑧ |①②③④|
③⑬⑭④ |⑤⑥⑦⑧|
⑪⑤⑥⑫ |⑨⑩⑪⑫|
⑮⑨⑩⑯ |⑬⑭⑮⑯|
88
②□□③ |①---|
①□□① |②-③-|
④④④④ |④---|
□□□□ |⑤---|
□□□□
⑤□□⑤
□□□□
⑤□□⑤
89
□①①□ |①---|
□①①□ |----|
□□□□ |----|
□□□□ |----|
最終更新:2026年09月21日 14:14