アットウィキロゴ
我ら!ゴミ分別団 / かてらざわ
BPM:166
Notes:753
1
□□□□ |----|
□□□□ |----|
□①②□ |----|
□□□□ |①-②-|
2
②□□② |①---|
□□□□ |②---|
④□□① |③---|
③⑤□③ |④-⑤-|
3
□□□□ |①-②-|
□③□① |③-④-|
□⑦⑥⑤ |⑤---|
④□②⑤ |⑥-⑦-|
4
□②②□ |①---|
□□□③ |②---|
①□⑤④ |③-④-|
□□⑥□ |⑤-⑥-|
5
□□□□ |①-②-|
□①⑦⑥ |③-④-|
④②□□ |⑤---|
③⑤□⑤ |⑥-⑦-|
6
②□□② |①---|
□①□□ |②---|
⑤□□③ |③-④-|
□⑥④□ |⑤-⑥-|
7
⑥③②□ |①-②-|
④⑤⑤① |③-④-|
□⑤⑤□ |⑤---|
□□□⑥ |⑥---|
8
□④⑥① |①---|
⑥□□④ |②-③-|
③□□② |④-⑤-|
①⑦⑤□ |⑥-⑦-|
9
③□□③ |①---|
□②①□ |②---|
③①②③ |③-④-|
②⑤④① |⑤---|
10
□□□□ |①-②-|
⑦③②① |③---|
□⑧⑥□ |④⑤⑥-|
□⑤④□ |⑦-⑧-|
11
④③②① |①-②-|
□⑥⑤□ |③-④-|
□⑧⑦□ |⑤⑥⑦⑧|
□□⑨□ |⑨---|
12
⑤□⑦② |①-②-|
□⑥□□ |③-④-|
□□④⑦ |⑤-⑥-|
①③□① |⑦---|
13
⑧①□□ |①-②-|
⑤□②□ |③-④-|
⑧③⑦⑥ |⑤-⑥⑦|
⑤□④□ |⑧---|
14
□①②③ |①-②-|
④⑧⑨⑤ |③---|
⑥⑩□⑦ |④⑤⑥⑦|
□□□□ |⑧⑨⑩-|
15
①□⑥□ |①-②-|
□⑤□⑦ |③-④-|
④□②□ |⑤-⑥-|
□③□① |⑦---|
16
□⑥□② |①-②-|
⑤□③□ |③-④-|
□④□⑦ |⑤-⑥-|
①□⑧① |⑦-⑧-|
17
□□□□ |①---|
□□□⑥ |----|
①③④□ |--②③|
⑤①□② |④⑤⑥-|
18
①②□⑤ |①---|
①②③□ |②---|
□④□⑤ |③--④|
□④③□ |--⑤-|
19
①□②□ |--①-|
①□□③ |②---|
⑤④②□ |③--④|
⑤④□③ |--⑤-|
20
①□□□ |----|
□□□□ |----|
①□□□ |----|
□□□□ |--①-|
21
□□□□ |----|
□□①□ |----|
□□①□ |----|
□□□□ |①---|
22
□②□① |①---|
□②③□ |②---|
⑤④□① |③--④|
⑤④③□ |--⑤-|
23
①②□⑤ |--①-|
①②□□ |②---|
④③□⑤ |③--④|
④③□□ |--⑤-|
24
①①①□ |----|
□□①□ |----|
□①□□ |----|
□①□□ |--①-|
25
□□□□ |----|
□□□③ |①-②-|
②④⑤□ |③---|
□□□① |④-⑤-|
26
②□□② |①---|
□□□□ |②---|
□⑤④① |③---|
③□□③ |④-⑤-|
27
⑤□□⑤ |①-②-|
□①③□ |③-④-|
③⑦⑥① |⑤---|
□④②□ |⑥-⑦-|
28
③⑤□□ |①---|
□②②③ |②---|
①□⑤④ |③-④-|
□□⑥□ |⑤-⑥-|
29
□□①③ |①-②-|
□①⑦⑥ |③-④-|
④②□□ |⑤---|
③⑤□⑤ |⑥-⑦-|
30
②③⑤② |①---|
□①□□ |②---|
⑤□□③ |③-④-|
□⑥④□ |⑤-⑥-|
31
⑥⑤⑤□ |①-②-|
④⑤⑤① |③-④-|
□③②□ |⑤---|
□□⑦⑥ |⑥-⑦-|
32
□⑦⑥□ |①---|
⑥□③⑦ |②-③-|
②④□② |④-⑤-|
□①⑤□ |⑥-⑦-|
33
□□□□ |①---|
□□□□ |----|
□□□□ |----|
①□□① |----|
34
□□□□ |①-②-|
①②③⑦ |③---|
□⑥⑧□ |④⑤⑥-|
□④⑤□ |⑦-⑧-|
35
①②③④ |①-②-|
□⑤⑤□ |③-④-|
□□⑥□ |⑤--⑥|
□⑦□□ |⑦---|
36
②⑥□⑤ |①-②-|
□□⑦□ |③-④-|
⑥④□□ |⑤---|
①□③① |⑥-⑦-|
37
□□①□ |①-②-|
□②⑧⑤ |③-④-|
⑥⑦③① |⑤-⑥⑦|
□④⑧⑤ |⑧---|
38
③②①□ |①-②-|
⑦⑤⑥⑧ |③---|
⑦□④⑧ |④⑤⑥-|
□□□□ |⑦-⑧-|
39
□⑥⑦⑤ |①-②-|
□□⑤□ |③-④-|
□①□□ |⑤---|
①④③② |⑥-⑦-|
40
②□⑥□ |①-②-|
□③□⑤ |③-④-|
⑦□④□ |⑤-⑥-|
①⑧□① |⑦-⑧-|
41
□□□□ |①---|
□②⑤□ |----|
□④③① |--②③|
⑥□①□ |④⑤⑥-|
42
⑤□□① |①---|
②③④□ |②---|
②④③① |③--④|
□⑤□□ |--⑤-|
43
□□□□ |--①-|
□④③② |②---|
①③④□ |③--④|
①□□② |--⑤-|
□⑤□□
□□□□
□□□□
⑤□□□
44
□□□① |----|
□□□① |----|
□□□□ |----|
□□□□ |--①-|
45
①①①□ |----|
□□①□ |----|
□①□□ |----|
□①□□ |①---|
46
⑤□□① |①---|
②③④□ |②---|
②④③① |③--④|
□⑤□□ |--⑤-|
47
⑤①②□ |--①-|
□③④□ |②---|
□④③□ |③--④|
②⑤□① |--⑤-|
48
□①□□ |----|
□□①□ |----|
□①①① |----|
□①①□ |--①-|
49
□□□□ |----|
□□□□ |----|
□②①□ |----|
□□□□ |①-②-|
50
②□□② |①---|
□□□□ |②---|
①④⑤□ |③---|
③□□③ |④-⑤-|
51
⑤□□⑤ |①-②-|
□③①□ |③-④-|
①⑥⑦③ |⑤---|
□②④□ |⑥-⑦-|
52
□□⑤③ |①---|
③②②□ |②---|
④⑤□① |③-④-|
□⑥□□ |⑤-⑥-|
53
③①□□ |①-②-|
⑥⑦①□ |③-④-|
□□②④ |⑤---|
⑤□⑤③ |⑥-⑦-|
54
②⑤③② |①---|
□□①□ |②---|
③□□⑤ |③-④-|
□④⑥□ |⑤-⑥-|
55
□⑤⑤⑥ |①-②-|
①⑤⑤④ |③-④-|
□②③□ |⑤---|
⑥⑦□□ |⑥-⑦-|
56
□⑥⑦□ |①---|
⑦③□⑥ |②-③-|
②□④② |④-⑤-|
□⑤①□ |⑥-⑦-|
57
□□□□ |①---|
□□□□ |----|
□□□□ |----|
①□□① |----|
58
□③②① |①-②-|
⑦⑧⑥□ |③---|
□⑤④□ |④⑤⑥-|
□□□□ |⑦-⑧-|
59
④③②① |①②③④|
□□□⑤ |⑤-⑥⑦|
⑫⑥⑦□ |⑧⑨⑩⑪|
⑧⑨⑩⑪ |⑫---|
60
⑤□②⑥ |①-②-|
①③□□ |③-④-|
⑦□④① |⑤-⑥-|
□⑦□□ |⑦---|
61
⑧①□□ |①-②-|
⑤□②① |③-④-|
⑧③⑦⑥ |⑤-⑥⑦|
⑤□④□ |⑧---|
62
□①②③ |①-②-|
④□□④ |③---|
□⑨⑨□ |④-⑤⑥|
⑤⑥⑦⑧ |⑦⑧⑨-|
63
①③⑥④ |①-②-|
□⑤②□ |③-④-|
④□□① |⑤-⑥-|
□□□□ |⑦---|
⑦□□□
□□□□
□□□□
□□□⑦
64
⑤③□② |①-②-|
①⑥④□ |③-④-|
□③⑦② |⑤---|
①□④⑤ |⑥-⑦-|
65
□□①② |①---|
□□③① |----|
①④□□ |--②③|
⑤①□⑥ |④⑤⑥-|
66
①②□⑤ |①---|
①②③□ |②---|
□④□⑤ |③--④|
□④③□ |--⑤-|
67
①④②□ |--①-|
①□□③ |②---|
④⑤②□ |③--④|
④□⑤③ |--⑤-|
68
□□①□ |----|
□□□□ |----|
□□①□ |----|
□□□□ |--①-|
69
□□□① |----|
□□□① |----|
□□□□ |----|
□□□① |①---|
70
③①□□ |①---|
③④□□ |②---|
①②④□ |---③|
①③②□ |--④-|
71
④①□③ |--①-|
④⑤□③ |②---|
①②⑤③ |③--④|
①④②□ |--⑤-|
72
□□□□ |----|
□□□□ |----|
□□□□ |----|
□□□□ |----|
73
□□□□ |----|
□①②□ |----|
□□□□ |①---|
□□□□ |②---|
74
②□□② |①---|
④□□① |②---|
□□□□ |③---|
③⑤□③ |④-⑤-|
75
□□□□ |①-②-|
□③□① |③-④-|
④□②⑤ |⑤---|
□⑦⑥⑤ |⑥-⑦-|
76
□□□□ |①---|
□②②③ |②---|
□□⑤④ |③-④-|
①□⑥□ |⑤-⑥-|
77
□□□□ |①-②-|
□①⑦⑥ |③-④-|
④②□□ |⑤---|
③⑤□⑤ |⑥-⑦-|
78
②③□② |①---|
□①□④ |②---|
④□□□ |③---|
□□③□ |④---|
79
□⑥⑦□ |①-②-|
□④②□ |③-④-|
□⑤⑤□ |⑤---|
③□□① |⑥-⑦-|
80
□□□① |①-②-|
□□□② |③-④-|
⑧□□③ |⑤-⑥-|
⑦⑥⑤④ |⑦-⑧-|
81
③③③③ |①---|
③②①③ |②---|
□①②□ |③---|
□④⑤□ |④-⑤-|
82
□③□② |①---|
③①②□ |②---|
①②①□ |③---|
□□□③ |④-⑤-|
□□□□
□□□□
□□④□
⑤□□□
83
□⑤②□ |①-②-|
□①□③ |③-④-|
③⑦⑥① |⑤---|
⑦④⑤⑥ |⑥-⑦-|
84
②③①② |①---|
③⑤□① |②---|
②□④② |③-④-|
□□⑤④ |⑤---|
85
③□①⑤ |①-②-|
□⑥⑥□ |③-④-|
□②④③ |⑤---|
①⑤□□ |⑥---|
86
②□□② |①---|
③□□⑤ |②---|
□④⑥□ |③-④-|
①⑤③① |⑤-⑥-|
87
⑤④③⑤ |①-②-|
□②①□ |③-④-|
③⑦⑥④ |⑤---|
①□□② |⑥-⑦-|
88
⑤⑦①⑥ |①-②-|
②④②⑧ |③-④-|
⑧⑥⑤③ |⑤-⑥-|
③①④⑦ |⑦-⑧-|
89
□□①□ |①---|
①□□□ |----|
□□□① |----|
□①□□ |----|
90
□□□□ |----|
□①①□ |----|
□□□□ |①---|
□□□□ |----|
91
□□□□ |----|
□□□□ |----|
□□□□ |----|
□□□□ |----|
92
□□□□ |①---|
□□□□ |----|
□①①□ |----|
□□□□ |----|
93
①□□① |----|
①□□① |----|
□□□□ |----|
□□□□ |①---|
最終更新:2026年09月21日 14:15