アットウィキロゴ
夢色ワンダー / hololive IDOL PROJECT
BPM:135~208
Notes:777
1
□□□□ |(170)----|
□□□□ |----|
□□□□ |----|
□□□□ |----|
2
□□④□ |①---|
□□□① |②---|
□□②□ |③---|
□③□□ |④---|
3
□□□④ |①---|
□□③□ |②---|
□②□□ |③---|
①□□□ |④---|
4
□①□□ |①---|
□□⑤□ |--②-|
□④□② |③-④-|
③□□□ |⑤---|
5
□□①□ |①---|
□⑤□□ |--②-|
②□④□ |③-④-|
□□□③ |⑤---|
6
□④□□ |①---|
□□③□ |②---|
□②□□ |③---|
□□①□ |④---|
7
□□①□ |①---|
□□□① |----|
□□□□ |----|
□□□□ |----|
8
□□□□ |(208)----|
□□□□ |----|
□□□□ |----|
□□□□ |----|
9
□⑤□④ |①-②-|
②□□□ |--③-|
⑥□③□ |④---|
□①□□ |⑤-⑥-|
10
□□②□ |--①-|
□□□□ |②---|
□□□① |③---|
□③③□ |----|
11
①□□① |①---|
□④□③ |②-③-|
⑤□②□ |--④-|
□⑥□□ |⑤-⑥-|
12
□①①□ |----|
②□□② |①---|
□③③□ |②---|
□□□□ |③---|
13
③□□⑥ |①-②-|
□⑤②□ |③-④-|
①□⑧④ |⑤-⑥-|
⑦□□□ |⑦-⑧-|
14
⑤□□□ |①-②-|
①□⑥④ |③-④-|
⑦③□□ |⑤-⑥-|
□□□② |⑦---|
15
□①①④ |①-②-|
⑤③□□ |③-④-|
□⑥□□ |--⑤-|
②⑦□□ |⑥-⑦-|
16
□②②□ |----|
□□□□ |①---|
③③①① |②---|
□□□□ |③---|
17
□□□① |①---|
□③②□ |②---|
④□□□ |③---|
□□□□ |④---|
18
□□□□ |①---|
□□□□ |----|
□□□① |②---|
②②□□ |----|
19
□⑦□④ |①---|
③□⑥□ |②-③-|
⑤①①□ |④-⑤-|
□□□② |⑥-⑦-|
20
□□②□ |--①-|
□①□□ |②---|
□□□□ |③---|
□③③□ |----|
21
⑥□③⑥ |----|
②□□□ |①-②-|
□④⑤□ |③-④-|
①□□□ |⑤-⑥-|
22
□□□□ |----|
□①②③ |①---|
□□□□ |②---|
□①②③ |③---|
23
①①□□ |①-②-|
③③□□ |③-④-|
⑤⑧④② |⑤-⑥-|
⑦⑦⑥□ |⑦-⑧-|
24
②□①① |①-②-|
□④③③ |③-④-|
⑥□□⑤ |⑤-⑥-|
□⑦⑦□ |⑦---|
25
⑧□①① |①-②-|
②□③③ |③-④-|
⑥□□⑤ |⑤-⑥-|
④□⑦⑦ |⑦-⑧-|
26
□③③□ |①--②|
④②②④ |--③-|
□①①□ |④---|
□□□□ |----|
27
①□□□ |①-②-|
□②③□ |③-④-|
⑤□□④ |⑤---|
□□⑥⑥ |⑥---|
28
①□□① |①---|
□□□□ |----|
□②②□ |②---|
□□□□ |----|
29
□⑦□④ |①---|
③□⑥□ |②-③-|
⑤□□□ |④-⑤-|
①①□② |⑥-⑦-|
30
③□②③ |--①-|
④①□□ |②---|
□□□□ |③---|
④□□□ |④---|
31
②□②□ |①---|
□□□① |----|
□②□□ |②---|
□□□① |----|
32
□□□□ |①---|
□①□□ |----|
□②②① |②---|
②□①② |----|
33
①⑦⑦① |①-②-|
④②□④ |③-④-|
□□⑤□ |⑤-⑥-|
□⑥③□ |⑦---|
34
□□□□ |--①-|
□②④□ |②-③-|
①②④③ |④---|
①□□③ |----|
35
⑤□□□ |①-②-|
②□□④ |--③-|
□⑥□□ |④---|
□①③□ |⑤-⑥-|
36
□□②□ |--①-|
□□□□ |②---|
□□□① |③---|
□③③□ |----|
37
□□□□ |(190)①---|
□③□⑤ |②-③-|
②□④□ |④-⑤-|
①□□①
38
□□①③ |①---|
□□□□ |②---|
□□□□ |③---|
②□□□
39
□□□□ |①---|
□□□② |--②-|
□④③□ |③-④-|
□①①□
40
③□□② |①---|
①□□□ |②---|
□□□□ |③---|
□□□□
41
□□□□ |①---|
⑤□③□ |②-③-|
□④□② |④-⑤-|
□①①□
42
□①□□ |①---|
□③□□ |②---|
□□□□ |③---|
□□□②
43
①□□① |①---|
□④③□ |--②-|
□□□② |③-④-|
□□□□
44
□□□□ |①---|
③□□② |②---|
①□□□ |③---|
□□□□
45
□□□□ |①-②-|
□②□□ |--③-|
□③③④ |--④-|
①□□□
46
□□①□ |①---|
□□□□ |----|
□□③□ |②-③-|
□□□②
47
②□③□ |①-②-|
□①□③ |--③-|
□□□□ |--④-|
④□□□
48
□□□① |①---|
□②②□ |②---|
③③□□ |③---|
□□□□
49
□□□□ |①---|
□□□□ |----|
□□③□ |②-③-|
①□□②
50
□□③③ |①---|
□□□① |②---|
□□□□ |③---|
②②□□
51
□□□□ |(170)①---|
□③④□ |(158)--②-|
②①①□ |(145)③-④-|
□□□□
52
□□□① |(135)①---|
□□□□ |----|
□□□□ |----|
□□□□
53
④□⑤② |(208)①-②-|
□□□⑥ |③-④-|
□□□□ |⑤-⑥-|
③□□①
54
□⑥□□ |①-②-|
⑤□□□ |③-④-|
④□□① |⑤-⑥-|
□③②□
55
④□⑤② |①-②-|
□□□⑥ |③-④-|
□□□□ |⑤-⑥-|
③□□①
56
□□□□ |①-②-|
④④□□ |③-④-|
③③□① |----|
□□②□
57
④□⑤② |①-②-|
□□□□ |③-④-|
□□□⑥ |⑤-⑥-|
③□□①
58
□□□□ |①-②-|
③□①□ |③-④-|
□②□□ |----|
□④□□
59
④□⑤② |①-②-|
□□□□ |③-④-|
□□□⑥ |⑤-⑥-|
③□□①
60
□□□□ |①-②-|
②④④□ |③-④-|
□③③□ |----|
□①□□
61
□□□□ |①---|
⑤□□□ |②-③-|
□④□② |④-⑤-|
①□③①
62
□□①① |①---|
□□□□ |----|
□□□□ |②---|
②②□□
63
□□□⑤ |①---|
②□④□ |②-③-|
①③□① |④-⑤-|
□□□□
64
①①□□ |①---|
□□□□ |----|
□□□□ |②---|
□□②②
65
□□□□ |①---|
①□□① |②---|
□②③□ |③---|
②③□□
66
□□④□ |①---|
□③□□ |--②-|
②□□① |③-④-|
□□①□
67
□□□□ |①---|
□□②① |----|
□③□□ |②-③-|
□□□□
68
□□□□ |①---|
□□□□ |----|
□□□□ |----|
□□①□
69
□□□② |(194)①---|
□□□□ |----|
①□□□ |②---|
□□□□ |----|
70
□□□□ |①---|
□□③② |----|
□□□□ |----|
□①□□ |②-③-|
71
□□②□ |①---|
□□□□ |----|
□①□□ |----|
□□□□ |②---|
72
□□□□ |①---|
□□①□ |②---|
□□②□ |③---|
□□③□ |----|
73
②□□□ |①---|
□□□□ |----|
□□□① |②---|
□□□□ |----|
74
□□□□ |①---|
②③④□ |----|
□□□□ |②---③-|
□□①□ |--④---|
75
□□②□ |①---|
□③□① |----|
□□□□ |②---|
□□□□ |③---|
76
□□□□ |(208)①---|
□□□□ |----|
□□①□ |----|
□□□□ |----|
77
□⑤③□ |①---|
④□□□ |②---③-|
□□□② |----④-|
□①①□ |⑤---|
78
④□□② |①---|
□□□□ |②---|
□④②□ |③---|
①□□③ |④---|
79
□④①□ |①---|
④□□① |②---|
②□□③ |③---|
□②③□ |④---|
80
□□□□ |①---|
□①①□ |----|
□①①□ |----|
□□□□ |----|
81
⑥③□□ |①---②-|
②⑤⑦⑦ |③---④-|
□□④④ |----⑤-|
□①①□ |⑥---⑦-|
82
□②□④ |----|
③□□□ |①---②-|
□□□④ |③---|
□①①□ |④---|
83
①⑥⑥⑤ |①---|
□①④② |②---|
①□②□ |③---④-|
③③□② |⑤---⑥-|
84
□□□□ |----|
□□□□ |----|
□□□□ |----|
□□□□ |----|
85
③□□④ |①---|
□□□□ |②---|
□□□□ |③---|
①□□② |④---|
86
□①②□ |①---|
①①②② |--②-|
①□□② |----|
□□□□ |----|
87
□□□□ |(203)①---|
□□□□ |----|
□②□□ |②---|
①①①① |----|
88
□□①□ |①---|
□□□① |②---|
②□□□ |----|
□②□③ |③---|
89
□□□□ |----|
②□□④ |①-②-|
①□□③ |--③-|
□□□□ |④---|
90
①②□④ |①-②-|
□⑤④□ |③---|
⑤③□□ |④---|
□□□□ |⑤---|
91
□□□□ |①---|
□□□□ |----|
□□②□ |②---|
①①①① |----|
92
□①□□ |①---|
①□□□ |②---|
□□□② |----|
③□②□ |③---|
93
④⑤②① |①-②-|
□□□□ |③---|
□□□□ |④-⑤-|
□⑥③□ |⑥---|
94
□□□① |①-②-|
□③②□ |--③-|
□④③□ |--④-|
⑤□□□ |⑤---|
95
□□□□ |----|
□□□□ |----|
□□□□ |----|
□□□□ |----|
96
□②□② |(208)----|
□③□□ |①---|
□□④□ |②---|
①□①□ |③-④-|
97
□□□□ |--①-|
①□□④ |②-③-|
□□□② |----|
③□④□ |④---|
98
③①③□ |①---|
□□④□ |②---|
①⑤□□ |③---|
□②□② |④-⑤-|
99
□□□□ |--①-|
④□□① |②-③-|
②□□□ |----|
□④□③ |④---|
100
□③①③ |①---|
□④□□ |②---|
□□⑤① |③---|
②□②□ |④-⑤-|
101
□②①□ |----|
②□□① |①---|
□□□③ |②---|
□□③□ |③---|
102
□⑥④□ |①-②-|
⑤②□③ |--③-|
③□□⑤ |④---|
①□□① |⑤-⑥-|
103
□□□② |--①-|
□□□□ |②---|
□③□□ |③---|
①□④□ |④---|
104
①□□① |----|
□①①③ |①---|
②□□□ |--②-|
□□□□ |-③--|
105
□④□④ |①---|
③□③□ |②---|
□②□② |③---|
①□①□ |④---|
106
①□①□ |①---|
□□⑤□ |--②-|
□④□② |③-④-|
③□□□ |⑤---|
107
□①□① |①---|
□⑤□□ |--②-|
②□④□ |③-④-|
□□□③ |⑤---|
108
□④□④ |①---|
③□③□ |②---|
□②□② |③---|
①□①□ |④---|
109
①□①□ |①---|
□□□② |----|
①□①□ |②---|
□③□□ |③---|
110
□□③□ |①---②-|
□②⑤□ |③---④-|
④⑥□□ |----⑤-|
④□①① |⑥---|
111
□□⑤⑤ |①---②-|
□③□□ |③---④-|
□□②□ |----⑤-|
④④①① |----|
112
⑤②□⑥ |--①-|
□□③□ |②-③-|
①□□□ |④-⑤-|
④□□⑦ |⑥-⑦-|
113
④□□□ |----|
□□③□ |--①-|
□②□□ |--②-|
□①①□ |③-④-|
114
□①□① |①---|
□⑤□□ |--②-|
②□④□ |③-④-|
□□□③ |⑤---|
115
①□①□ |①---|
□□⑤□ |--②-|
□④□② |③-④-|
③□□□ |⑤---|
116
④□④□ |①---|
□③□③ |②---|
②□②□ |③---|
□①□① |④---|
117
□②□② |①---|
□□□□ |----|
□②□② |②---|
□①①① |----|
118
①□□⑥ |--①-|
□②□□ |②-③-|
□□⑤□ |--④-|
③□□④ |⑤-⑥-|
119
□⑤□□ |--①-|
①□④□ |②-③-|
□②□□ |--④-|
③□□□ |⑤---|
120
⑥□□① |--①-|
□⑤□□ |②-③-|
□□②□ |--④-|
④□□③ |⑤-⑥-|
121
□□□① |--①-|
□□②□ |②-③-|
□□⑤③ |--④-|
□④□□ |⑤---|
122
□□□□ |①---|
①□④□ |②---|
□②□③ |③---|
□□□□ |④---|
123
③□□② |①---|
□□□□ |②-③-|
①□□④ |--④-|
□①④□ |----|
124
□①□□ |①---|
①②□□ |----|
□□②□ |②---|
□□□□ |----|
125
□□□□ |①---|
□□②□ |--②-|
□③□① |③---|
□□①□ |----|
126
③⑤□④ |①-②-|
⑤□□② |--③-|
③□⑥□ |④---|
①①□□ |⑤-⑥-|
□□⑧□ |--⑦-|
□⑦□□ |⑧---|
⑨⑦□⑨ |⑨---|
□□□□
127
④□⑤③ |①-②-|
②□□□ |--③-|
□□③⑤ |④---|
⑥□①① |⑤-⑥-|
□□□□ |--⑦-|
⑧□⑦⑦ |⑧---|
□□□□ |⑨---|
□⑨⑨□
128
①③□② |①-②-|
□⑤□⑥ |--③-|
③①②④ |④---|
⑤□⑥④ |⑤-⑥-|
129
□□②□ |--①-|
①□②□ |②---|
□③③□ |③---|
□①□□ |----|
130
□⑤⑩□ |①-②-③|
□⑨④□ |-④-⑤-|
③□□⑧ |⑥-⑦-⑧|
①⑦②⑥ |-⑨-⑩-|
131
⑤□□⑩ |①-②-③|
⑨□□④ |-④-⑤-|
③□□⑧ |⑥-⑦-⑧|
①⑦②⑥ |-⑨-⑩-|
132
□⑤⑥□ |①-②-③|
□③④□ |-④-⑤-|
□①②□ |⑥---|
□□□□ |----|
133
①□□□ |----|
□②□□ |①---|
□□③□ |②---|
□□□□ |③---|
134
□⑤□④ |①-②-|
②□□□ |--③-|
⑥□□③ |④---|
①□□① |⑤-⑥-|
135
□□④④ |--①-|
□□□② |②---|
□③③□ |③---|
□□①□ |④---|
136
□④□□ |①-②-|
②□□⑤ |--③-|
③□□□ |④---|
①①⑥□ |⑤-⑥-|
137
□⑤□④ |--①-|
③□②⑤ |②---|
□⑤□④ |③-④-|
③□□① |⑤---|
最終更新:2026年09月21日 14:15