アットウィキロゴ
メンドクサイ愛情
大島麻衣

ADVANCED

Level: 7
BPM: 130
Notes: 439

1
口口口口 |----|
口口口口 |----|
口口口口 |----|
口口口口 |----|
2
①②③口 |①---|
口口口口 |②---|
口口口口 |③---|
④口口口 |④---|
3
口①口② |①②③④|
口③口④ |⑤⑥⑦⑧|
口⑤口⑥
口⑦口⑧

口口口口
⑨口口⑫
⑩⑬⑪口 |⑨-⑩⑪|
口口口口 |-⑫-⑬|
4
⑨⑧⑩⑪ |①-②③|
口⑥⑦口 |④⑤⑥⑦|
④口⑤① |⑧---|
②口③口 |⑨-⑩⑪|
5
口⑦⑧口 |-①②③|
⑨①②⑩ |④-⑤⑥|
⑪③④口 |⑦⑧⑨⑩|
⑤⑫⑬⑥ |⑪-⑫⑬|
6
口口口口 |--①-|
口②①⑤ |②-③④|
③口口④ |----|
口口口口 |---⑤|
7
①⑫②⑬ |-①②③|
③⑭④口 |④⑤⑥⑦|
⑤⑨⑥⑩ |⑧⑨⑩⑪|
⑦⑪⑧口 |-⑫⑬⑭|
8
⑥口⑦口 |①②③④|
⑧口口① |⑤⑥⑦⑧|
②口③口
④口⑤口

口口口口
口口⑨口
口⑩口口 |⑨--⑩|
⑪⑫⑬口 |-⑪⑫⑬|
9
口口口口 |-①②③|
口③②① |-④⑤⑥|
④⑥口⑤
口口口口

口口口口
⑪口口⑫
口口⑦口 |⑦-⑧⑨|
口⑧⑨⑩ |⑩-⑪⑫|
10
口①①口 |--①-|
口口口口 |----|
口口口口 |----|
口口口口 |----|
11
③口口③ |----|
口③③口 |----|
口②①口 |①---|
①口口② |②--③|
12
口①①口 |----|
②口口② |①---|
③口口③ |②---|
口④④口 |③--④|
13
④口口④ |----|
口③③口 |①---|
口②②口 |②---|
①口口① |③--④|
14
口口口口 |--①-|
⑥⑦⑧口 |②-③-|
①口口⑤ |④--⑤|
②③④口 |-⑥⑦⑧|
15
⑧⑦口⑥ |-①②-|
口口口口 |③-④⑤|
口①②口 |----|
⑤④口③ |⑥-⑦⑧|
16
口口口口 |----|
①口②③ |①-②③|
⑥⑤口④ |----|
口口口口 |④-⑤⑥|
17
口口口口 |--①-|
②口③④ |②-③④|
口口口口 |----|
口①①口 |----|
18
口口口口 |--①-|
口口口① |②-③-|
口口口②
口口口③

口口口口
口⑨⑧⑦
⑤⑥口口 |④-⑤⑥|
口口④口 |-⑦⑧⑨|
19
①口口② |--①-|
⑤口⑥⑦ |②-③④|
口③④口 |----|
口口口口 |⑤-⑥⑦|
20
口口口口 |----|
口⑥⑦口 |①-②③|
③②⑤① |--④-|
④口口口 |⑤-⑥⑦|
21
①口口② |--①-|
口口口口 |②-③④|
口③④口 |----|
口口口口 |----|
22
口口口口 |①---|
②①①口 |----|
口口口③ |----|
口口口口 |②-③-|
23
口口口口 |①--②|
口口口⑤ |--③-|
④口口口 |----|
①②口③ |④-⑤-|
24
①口口口 |①---|
口②口口 |②-③④|
口口③④
口口口口

⑤⑥口口
口口口口
口口口口 |----|
口口口口 |⑤-⑥-|
25
口口①① |①-②-|
②口③③ |③-④-|
④口⑤⑤ |⑤-⑥-|
⑥⑧⑦⑦ |⑦-⑧-|
26
口口口口 |①---|
口①①口 |----|
口口口口
口口口口

②口口口
口③口口
口口口口 |----|
口口口口 |②-③-|
27
口口口口 |①--②|
口口口口 |--③-|
口口①⑤ |----|
④②③口 |④-⑤-|
28
口口口口 |①---|
①①口② |②---|
③③口口 |③---|
口口口④ |④---|
29
口⑤口口 |①-②-|
口口④口 |--③-|
口③口口 |--④-|
①①②口 |--⑤-|
30
①口②口 |--①-|
口口口口 |--②-|
口口口口
口口口口

⑤口口⑤
③⑤⑤④
口③④口 |③---|
口口口口 |④--⑤|
31
口口口口 |----|
口口口口 |----|
口口口口 |----|
口口口口 |----|
32
口口口口 |①-②-|
④口①① |③-④-|
口口口③
②口口口

口⑧口口
口口⑦口
口⑥口口 |⑤-⑥-|
口口⑤口 |⑦-⑧-|
33
②口①① |①---|
口②口口 |--②-|
口口口口
口口口口

口口④口
口口口③
口口③口 |③---|
口口口口 |--④-|
34
①①口② |①---|
③口②口 |--②-|
口③④口 |③---|
口口口口 |--④-|
35
口③③口 |①---|
④口口④ |②---|
①口口① |③---|
口②②口 |④---|
36
④口口口 |①---|
口④口口 |--②-|
②①①③ |③---|
口②③口 |--④-|
37
④口口② |①---|
③口②① |--②-|
口③①口 |③---|
口口口口 |--④-|
38
口①①口 |①--②|
②⑤口② |--③-|
③⑥⑦③ |④---|
④口口④ |⑤-⑥⑦|
39
⑥口口⑦ |----|
口口口⑤ |①②③④|
③口口④ |--⑤-|
①口口② |⑥-⑦-|
40
口①①口 |--①-|
口口口口 |-②--|
口②②口
口口口口

口⑤口口
口口④口
口口口口 |③---|
口③③口 |④-⑤-|
41
②口①① |①---|
口②口口 |--②-|
口口口口
口口口口

口口④口
口口口③
口口③口 |③---|
口口口口 |--④-|
42
①①口② |①---|
③口②口 |--②-|
口③④口 |③---|
口口口口 |--④-|
43
口③③口 |①---|
④口口④ |②---|
①口口① |③---|
口②②口 |④---|
44
④口口口 |①---|
口④口口 |--②-|
②①①③ |③---|
口②③口 |--④-|
45
④口口② |①---|
③口②① |--②-|
口③①口 |③---|
口口口口 |--④-|
46
口①①口 |①--②|
②⑤口② |--③-|
③⑥⑦③ |④---|
④口口④ |⑤-⑥⑦|
47
⑤口口口 |----|
⑥口④⑦ |①-②③|
②口口③ |--④-|
①口口口 |⑤-⑥⑦|
48
③①①② |--①-|
口口口口 |-②--|
口口口口 |③---|
②口口③ |----|
49
口①口② |①②③④|
口③口④ |⑤⑥⑦⑧|
口⑤口⑥
口⑦口⑧

口口口口
⑨口口⑫
⑩⑬⑪口 |⑨-⑩⑪|
口口口口 |-⑫-⑬|
50
⑨⑧⑩⑪ |①-②③|
口⑥⑦口 |④⑤⑥⑦|
④口⑤① |⑧---|
②口③口 |⑨-⑩⑪|
51
口⑦⑧口 |-①②③|
⑨①②⑩ |④-⑤⑥|
⑪③④口 |⑦⑧⑨⑩|
⑤⑫⑬⑥ |⑪-⑫⑬|
52
口口口口 |--①-|
口②①⑤ |②-③④|
③口口④ |----|
口口口口 |---⑤|
53
①⑫②⑬ |-①②③|
③⑭④口 |④⑤⑥⑦|
⑤⑨⑥⑩ |⑧⑨⑩⑪|
⑦⑪⑧口 |-⑫⑬⑭|
54
⑥口⑦口 |①②③④|
⑧口口① |⑤⑥⑦⑧|
②口③口
④口⑤口

口口口口
口口⑨口
口⑩口口 |⑨--⑩|
⑪⑫⑬口 |-⑪⑫⑬|
55
口口口口 |-①②③|
口③②① |-④⑤⑥|
④⑥口⑤
口口口口

口口口口
⑪口口⑫
口口⑦口 |⑦-⑧⑨|
口⑧⑨⑩ |⑩-⑪⑫|
56
口①①口 |--①-|
口口口口 |----|
口口口口 |----|
口口口口 |----|
最終更新:2018年11月06日 18:01