アットウィキロゴ
白鳥の湖
Swan Lake Orchestra

EXTREME

Level: 9.7
BPM: 180-300
Notes: 666

BPM: 180
1
口口口口 |----|
口口口口 |----|
口口口口 |----|
口口口口 |----|
2
口口口口 |----|
①②③口 |①-②-③-|
口⑥⑤④ |④-⑤-⑥-|
⑦⑧⑨口 |⑦-⑧-⑨-|
3
口口口口 |----|
①②③口 |①-②-③-|
口⑥⑤④ |④-⑤-⑥-|
⑦⑧⑨口 |⑦-⑧-⑨-|
4
①口口② |①---|
③口口口 |----|
口口口④ |②-③-|
⑤口口口 |④-⑤-|
5
②口口③ |①---|
口口口口 |--②-|
口口口口 |③---|
④口口① |--④-|
6
②口口③ |①---|
④口口⑤ |--②-|
⑥口口口 |③-④-|
口口口① |⑤-⑥-|
7
口④口口 |①---|
口口口口 |----|
口口口① |--②-|
口口③② |③-④-|
8
①口口② |①---|
③口口口 |----|
口口口④ |②-③-|
⑤口口口 |④-⑤-|
9
②口口③ |①---|
口口口口 |--②-|
口口口口 |③---|
④口口① |--④-|
10
②口口③ |①---|
④口口⑤ |--②-|
⑥口口口 |③-④-|
口口口① |⑤-⑥-|
11
口②②口 |①---|
口口口口 |----|
口口口① |----|
口口口口 |②---|
12
口口口⑤ |①---|
①口口② |②---|
③口口口 |③---|
口口口④ |④-⑤-|
13
①口口⑤ |①---|
口口口口 |--②-|
口口口口 |③---|
③口②④ |④-⑤-|
14
①口口⑤ |①---|
口口口口 |--②-|
口口口口 |③---|
③口②④ |④-⑤-|
15
①口⑥口 |①---|
口口口口 |--②-|
口⑤口④ |③-④-|
③口②口 |⑤-⑥-|
16
口口口⑤ |①---|
①口口② |②---|
③口口口 |③---|
口口口④ |④-⑤-|
17
①口口⑤ |①---|
口口口口 |--②-|
口口口口 |③---|
③口②④ |④-⑤-|
18
①口口⑤ |①---|
口口口口 |--②-|
口口口口 |③---|
③口②④ |④-⑤-|
19
①口口⑤ |①---|
口口口口 |--②-|
口口口口 |③---|
③口②④ |④-⑤-|
20
①②⑥口 |①---|
口③⑦口 |----|
口④⑧口 |②③④⑤|
口⑤⑨口 |⑥⑦⑧⑨|
21
②口口口 |①---|
③口口口 |②③④⑤|
④口口口 |⑥---|
⑤⑥口① |----|
22
口口口口 |----|
口口口口 |----|
口口口口 |----|
口口口口 |----|

BPM: 220
23
①口口③ |①---|
④①②口 |②---|
口③⑤⑤ |③-④-|
⑥口口口 |⑤-⑥-|
24
③口口④ |①---|
口①②口 |②-③-|
口④⑤口 |④---|
⑥口口① |⑤-⑥-|
25
③口口④ |①---|
⑤①②⑥ |②-③-|
⑦④⑥口 |④-⑤-|
口口口① |⑥-⑦-|
26
口⑥口口 |①---|
口①②口 |②---|
口③⑤① |③-④-|
口口⑤④ |⑤-⑥-|
27
①口口③ |①---|
④①②口 |②---|
口③⑤⑤ |③-④-|
⑥口口口 |⑤-⑥-|
28
③口口④ |①---|
口①②口 |②-③-|
口④⑤口 |④---|
⑥口口① |⑤-⑥-|
29
③口口④ |①---|
⑤①②⑥ |②-③-|
⑦④⑥口 |④-⑤-|
口口口① |⑥-⑦-|
30
口口口口 |①---|
口①②口 |②---|
口③④① |③---|
口口口口 |④---|
31
口口口⑤ |①---|
①①②② |②---|
③③④口 |③---|
口口口④ |④-⑤-|
32
①口口⑥ |①---|
口①②口 |②-③-|
口④⑤口 |④---|
④口③⑤ |⑤-⑥-|
33
①口口⑥ |①---|
口①②口 |②-③-|
口④⑤口 |④---|
④口③⑤ |⑤-⑥-|
34
①口⑦口 |①---|
口①②口 |②-③-|
口④⑥⑤ |④-⑤-|
④口③口 |⑥-⑦-|
35
口口口⑤ |①---|
①①②② |②---|
③③④口 |③---|
口口口④ |④-⑤-|
36
①口口⑥ |①---|
口①②口 |②-③-|
口④⑤口 |④---|
④口③⑤ |⑤-⑥-|
37
①口口⑥ |①---|
口①②口 |②-③-|
口④⑤口 |④---|
④口③⑤ |⑤-⑥-|
38
①口口⑥ |①---|
口①②口 |②-③-|
口④⑤口 |④---|
④口③⑤ |⑤-⑥-|
39
①⑥口口 |①---|
口①②口 |②-③-|
口④⑤③ |④---|
④口口口 |⑤-⑥-|
40
①口口③ |①---|
④①②口 |②---|
口③⑤⑤ |③-④-|
⑥口口口 |⑤-⑥-|
41
③口口④ |①---|
口①②口 |②-③-|
口④⑤口 |④---|
⑥口口① |⑤-⑥-|
42
③口口④ |①---|
⑤①②⑥ |②-③-|
⑦④⑥口 |④-⑤-|
口口口① |⑥-⑦-|
43
口⑥口口 |①---|
口①②口 |②---|
口③⑤① |③-④-|
口口⑤④ |⑤-⑥-|
44
①口口③ |①---|
④①②口 |②---|
口③⑤⑤ |③-④-|
⑥口口口 |⑤-⑥-|
45
③口口④ |①---|
口①②口 |②-③-|
口④⑤口 |④---|
⑥口口① |⑤-⑥-|
46
③口口④ |①---|
⑤①②⑥ |②-③-|
⑦④⑥口 |④-⑤-|
口口口① |⑥-⑦-|
47
口口口口 |①---|
口①口口 |----|
口口口① |----|
口口口口 |----|
48
③④口口 |①---|
④③⑤② |②---|
①口②⑤ |③---|
口①口口 |④-⑤-|
49
口④口③ |①---|
④口⑤口 |--②-|
口①口⑤ |③---|
①口口② |④-⑤-|
50
口④口③ |①---|
④口⑤口 |--②-|
口①口⑤ |③---|
①口口② |④-⑤-|
51
口口③② |①---|
口口口口 |----|
口①口口 |②-③-|
①口④⑤ |④-⑤-|
52
③④口口 |①---|
④③⑤② |②---|
①口②⑤ |③---|
口①口口 |④-⑤-|
53
口④口③ |①---|
④口⑤口 |--②-|
口①口⑤ |③---|
①口口② |④-⑤-|
54
口④口③ |①---|
④口⑤口 |--②-|
口①口⑤ |③---|
①口口② |④-⑤-|
55
口⑦口⑧ |①-②-|
口⑤口⑥ |③-④-|
③①④口 |⑤-⑥-|
①口②口 |⑦-⑧-|
56
①口②口 |①-②-|
③口④口 |③-④-|
⑤⑤⑤⑤ |⑤---|
口⑥⑥口 |⑥---|
57
①口口② |①---②-|
③口口④ |--③---|
⑤口口⑥ |④---⑤-|
口口口口 |--⑥---|
58
口口口口 |①---|
口口口口 |----|
口②②口 |②---|
①口口口 |----|
59
口①①口 |①---②-|
②④④③ |--③---|
⑤口口⑥ |④---⑤-|
口口口口 |--⑥---|
60
口口口口 |①---|
口口口口 |----|
口②②口 |②---|
口①①口 |----|
61
口①①口 |①---②-|
③④④② |--③---|
⑥口口⑤ |④---⑤-|
口口口口 |--⑥---|
62
口口口口 |①---|
口口口口 |----|
口②②口 |②---|
口①①口 |----|
63
口口口口 |①---②-|
⑤口口⑥ |--③---|
②④④③ |④---⑤-|
口①①口 |--⑥---|
64
口①①口 |①---|
口②②口 |②---|
口③③口 |③---|
口④④口 |④---|
65
口①①口 |①---②-|
⑤口口⑥ |--③---|
②④④③ |④---⑤-|
口口口口 |--⑥---|
66
口①①口 |①---|
口②②口 |②---|
口③③口 |③---|
口④④口 |④---|
67
口①①口 |①---②-|
②③③④ |③-④---|
口⑤⑤口 |⑤---⑥-|
⑥⑦⑦⑧ |⑦-⑧---|
68
口①①口 |①---②-|
②③③④ |③-④---|
口⑤⑤口 |⑤---⑥-|
⑥⑦⑦⑧ |⑦-⑧---|
69
①②③口 |①-②-③-|
口④⑤⑥ |④-⑤-⑥-|
⑦⑧⑨口 |⑦-⑧-⑨-|
口⑩⑪⑫ |⑩-⑪-⑫-|
70
①②③口 |①-②-③-|
口④⑤⑥ |④-⑤-⑥-|
⑦⑧⑨口 |⑦-⑧-⑨-|
口⑩⑪⑫ |⑩-⑪-⑫-|
71
①②③口 |①-②-③-|
口④⑤⑥ |④-⑤-⑥-|
⑦⑧⑨口 |⑦-⑧-⑨-|
口⑩⑪⑫ |⑩-⑪-⑫-|
72
①②③口 |①-②-③-|
口④⑤⑥ |④-⑤-⑥-|
⑦⑧⑨口 |⑦-⑧-⑨-|
口⑩⑪⑫ |⑩-⑪-⑫-|

BPM: 300
73
口口口口 |----|
口口口口 |----|
口口口口 |----|
口口口口 |----|
74
①①②口 |①---|
口③④口 |②---|
口口口口 |③---|
口口口口 |④---|
75
口口口① |①---|
②口口口 |②---|
口①②③ |③---|
④③④口 |④---|
76
④①②口 |①---|
口③④口 |②---|
口口口口 |③---|
口口口① |④---|
77
口口口① |①---|
口口口口 |②---|
口①②口 |③---|
④③④口 |④---|
78
③②②口 |①---|
口④④口 |②---|
口口口口 |③---|
口口口① |④---|
79
口口口① |①---|
③口口口 |②---|
口②②口 |③---|
口④④口 |④---|
80
口②②口 |①---|
口④④① |②---|
③口口口 |③---|
口口口口 |④---|
81
口口口口 |①---|
口口口口 |②---|
口②②① |③---|
③④④口 |④---|
82
①口口口 |①---|
口口口口 |----|
口口口口 |----|
口口口① |----|
83
口口口① |①---|
②口口口 |②---|
口口口③ |③---|
④口口口 |④---|
84
②口口口 |①---|
口口口口 |----|
口口口口 |----|
口口口① |②---|
85
口②⑥① |①---|
口③⑦口 |----|
口④⑧口 |②③④⑤|
口⑤⑨口 |⑥⑦⑧⑨|

BPM: 250
86
②⑦口口 |①---|
③⑧口⑥ |②③④⑤|
④⑨口口 |⑥---|
⑤⑩口① |⑦⑧⑨⑩|
87
口口②⑦ |①---|
口口③口 |②③④⑤|
⑨口④① |⑥-⑦-|
⑧口⑤⑥ |⑧-⑨-|
88
口②⑦口 |①---|
①③⑧⑥ |②③④⑤|
口④⑨口 |⑥---|
口⑤⑩口 |⑦⑧⑨⑩|
89
②口口⑦ |①---|
③口口口 |②③④⑤|
④口口① |⑥-⑦-|
⑤口口⑥ |----|
90
口⑤⑥⑦ |①-②-|
口④①⑧ |③-④-|
口③②口 |⑤-⑥-|
口口口口 |⑦-⑧-|
91
⑧口口口 |①-②-|
⑦口口口 |③-④-|
⑥口口① |⑤-⑥-|
⑤④③② |⑦-⑧-|
92
口口口口 |----|
口口口口 |----|
口口口口 |----|
口口口口 |----|
93
口口口口 |----|
①口口① |----|
①口口① |----|
口口口口 |①---|

BPM: 220
94
①口口口 |----|
口口口口 |----|
口口口口 |----|
口口口① |①---|
95
口口口口 |----|
②①②① |①---|
口口口口 |----|
口②①口 |②---|
最終更新:2018年11月07日 01:47