アットウィキロゴ

Love Train
Marin&Riena

BASIC

Level: 3
BPM: 121
Notes: 172

1
口口口口 |----|
口口口口 |----|
口口口口 |----|
口口口口 |----|
2
口口口③ |①---|
口口②口 |②---|
口①口口 |③---|
口口口口 |----|
3
③口口口 |①---|
口②口口 |②---|
口口①口 |③---|
口口口口 |----|
4
口口口口 |①---|
①口口② |----|
口口口口 |②---|
口口口口 |----|
5
口③③口 |①---|
口①②口 |②---|
口口口口 |③---|
口口口口 |----|
6
口口口口 |①---|
①口口口 |②---|
口②口口 |③---|
口口③口 |----|
7
口口口口 |①---|
口口口① |②---|
口口②口 |③---|
口③口口 |----|
8
口口口口 |①---|
口口口口 |----|
口①②口 |②---|
口口口口 |----|
9
口①②口 |①---|
口③③口 |----|
口口口口 |②---|
口口口口 |③---|
10
口口口口 |①---|
口口口口 |②---|
①②③口 |③---|
口口口④ |④---|
11
④口口口 |①---|
口③②① |②---|
口口口口 |③---|
口口口口 |④---|
12
口④口口 |①---|
口口③口 |②---|
口口口② |③---|
口口口① |④---|
13
口口①口 |①---|
口②口口 |②---|
③口口口 |③---|
④口口口 |④---|
14
口口口口 |①---|
口口口口 |②---|
④口②口 |③---|
口③口① |④---|
15
口口口口 |①---|
口口口口 |②---|
口②口④ |③---|
①口③口 |④---|
16
口口口口 |①---|
口②④口 |②---|
口①③口 |③---|
口口口口 |④---|
17
口①①口 |①---|
口②③口 |②---|
口④④口 |③---|
口口口口 |④---|
18
口口口口 |①---|
口③③① |----|
口②口口 |②---|
口口口口 |③---|
19
口口口口 |①---|
①③③口 |----|
口口②口 |②---|
口口口口 |③---|
20
③①口口 |①---|
口②口口 |----|
口口口口 |②---|
口口口口 |③---|
21
口口①③ |①---|
口口②口 |----|
口口口口 |②---|
口口口口 |③---|
22
口①口口 |①---|
口口②③ |----|
口口口口 |②---|
口口口口 |③---|
23
口口①口 |①---|
③②口口 |----|
口口口口 |②---|
口口口口 |③---|
24
口口口口 |①---|
口口口口 |②---|
口②①口 |③---|
口③④口 |④---|
25
口④④口 |①---|
口②③口 |②---|
口①口口 |③---|
口口口口 |④---|
26
口③口② |①---|
①口口口 |----|
口口口口 |②---|
口口口口 |③---|
27
②口③口 |①---|
口口口① |----|
口口口口 |②---|
口口口口 |③---|
28
口口口口 |①---|
口口口口 |②---|
口①②口 |③---|
口③④口 |④---|
29
口①口口 |①---|
口口②口 |----|
口③口口 |②---|
口口口口 |③---|
30
口③口② |①---|
①口口口 |----|
口口口口 |②---|
口口口口 |③---|
31
②口③口 |①---|
口口口① |----|
口口口口 |②---|
口口口口 |③---|
32
口口口口 |①---|
口口口口 |②---|
口①②口 |③---|
口③④口 |④---|
33
口①口口 |①---|
口口②口 |②---|
口③口口 |③---|
口口④口 |④---|
34
口③口② |①---|
①口口口 |----|
口口口口 |②---|
口口口口 |③---|
35
②口③口 |①---|
口口口① |----|
口口口口 |②---|
口口口口 |③---|
36
口口口口 |①---|
口口口口 |②---|
口①②口 |③---|
口③④口 |④---|
37
口①口口 |①---|
口口②口 |----|
口③口口 |②---|
口口口口 |③---|
38
口③口② |①---|
①口口口 |----|
口口口口 |②---|
口口口口 |③---|
39
②口③口 |①---|
口口口① |----|
口口口口 |②---|
口口口口 |③---|
40
口口口口 |①---|
口口口口 |②---|
口①②口 |③---|
口③④口 |④---|
41
口①口口 |①---|
口口②口 |②---|
口③口口 |③---|
口口④口 |④---|
42
口口口口 |①---|
③口口口 |----|
口口口② |②---|
口①口口 |③---|
43
口口口口 |①---|
口口口口 |----|
③口口口 |②---|
口①口② |③---|
44
②口口③ |①---|
④口口① |②---|
口口口口 |③---|
口口口口 |④---|
45
口口口口 |①---|
口口口口 |②---|
口口口① |----|
②口③口 |③---|
46
口口口口 |①---|
③口口口 |----|
口口口② |②---|
口①口口 |③---|
47
口口口口 |①---|
口口口口 |----|
③口口口 |②---|
口①口② |③---|
48
②口口③ |①---|
④口口① |②---|
口口口口 |③---|
口口口口 |④---|
49
口口口口 |①---|
口口口口 |②---|
口口口① |③---|
②③③口 |----|
50
②口口④ |①---|
口①③口 |②---|
口口口口 |③---|
口口口口 |④---|

最終更新:2018年12月29日 13:15