アットウィキロゴ

CRAZY FOR YOU
(Kylee)


ADVANCED

Level: 6
BPM: 162
Notes: 428

1
口口口口 |----|
口口口口 |----|
口口口口 |----|
口口口口 |----|
2
口①①口 |①---|
口②③口 |--②-|
④口口口 |③---|
口口口口 |--④-|
3
②口口② |①---|
③口口③ |②---|
口口口① |③---|
口口口口 |----|
4
口①②口 |①-②-|
口③④口 |③-④-|
口⑤⑥口 |⑤-⑥-|
口⑦⑧口 |⑦-⑧-|
5
①口口① |①---|
②口口② |②---|
③口口③ |③---|
口口口口 |----|
6
①口口① |①---|
口②③口 |--②-|
口④口口 |③---|
口口口口 |--④-|
7
②口口② |①---|
③口口③ |②---|
④口①④ |③---|
口口口口 |④---|
8
④口口④ |①---|
口③③口 |②---|
口②②口 |③---|
①口口① |④---|
9
口口口口 |----|
①口口口 |----|
口口口口 |----|
口口口口 |--①-|
10
口口口口 |①-②-|
口①④③ |--③-|
②⑥口⑤ |④-⑤-|
口口口口 |--⑥-|
11
④口口④ |①-②-|
⑤口口口 |③---|
口口①口 |④---|
口②③口 |--⑤-|
12
口口口口 |①-②-|
口①④③ |--③-|
②⑥口⑤ |④-⑤-|
口口口口 |--⑥-|
13
④口口④ |①-②-|
口口口口 |③---|
口口①口 |④---|
口②③口 |----|
14
口①①口 |①---|
②口口③ |--②-|
口④口口 |③---|
口口口口 |--④-|
15
②口口② |①---|
③口口③ |②---|
口口①口 |③-④-|
口④⑤口 |⑤---|
16
④口口④ |①---|
口①①口 |②---|
②③③② |③---|
口③③口 |④---|
17
口口口口 |--①-|
口①②口 |②-③-|
⑥③④⑥ |④-⑤-|
口⑤口口 |⑥---|
18
口①①口 |①---|
③口⑥② |②-③-|
口⑤口口 |--④-|
口口④口 |⑤-⑥-|
19
①口口① |--①-|
②口口② |--②-|
③口口③ |--③-|
口口口口 |----|
20
口①①口 |①---|
③口⑥② |②-③-|
口⑤口口 |--④-|
口口④口 |⑤-⑥-|
21
⑤口口⑤ |--①-|
口①口口 |②-③-|
④口②④ |--④-|
口③口口 |⑤---|
22
口口口口 |①-②-|
②⑥①⑤ |③-④-|
口口口口 |--⑤-|
④口③⑦ |⑥-⑦-|
23
②口①口 |--①-|
口口口口 |②-③-|
口口③口 |--④-|
口④④口 |----|
24
⑤⑥⑥⑤ |①-②-|
口③④口 |③-④-|
口①②口 |⑤---|
口口口口 |⑥---|
25
⑤口口口 |--①-|
口①②口 |②-③-|
口③口口 |--④-|
口④④口 |--⑤-|
26
口口口① |①---|
口③②口 |--②-|
口口口口 |③---|
口口口④ |--④-|
27
①①②② |①---|
口口口口 |②---|
③③④④ |③---|
口口口口 |④---|
28
④口口④ |①---|
②口口② |②---|
口③③口 |③---|
口①①口 |④---|
29
口口口口 |----|
口口口口 |----|
口口口口 |----|
口口口口 |----|
30
口①①口 |①---|
②口口③ |--②-|
口口口口 |③---|
④口口口 |--④-|
31
②②③③ |①---|
口口口口 |②---|
④④①① |③---|
口口口口 |④---|
32
口口口口 |①---|
②④④② |②---|
口③③口 |③---|
口①①口 |④---|
33
口口口口 |----|
口口口口 |----|
口口口口 |----|
口口口口 |----|
34
口①①口 |①---|
口口口口 |----|
口②②口 |②---|
口口口③ |--③-|
35
①①②② |①---|
口口口口 |②---|
③③④④ |③---|
口口口口 |④---|
36
④口口④ |①---|
①口口① |②---|
口③③口 |③---|
口②②口 |④---|
37
①①口口 |----|
②②口口 |----|
口口口口 |①---|
口口口口 |②---|
38
口口②② |①---|
口口③③ |----|
①①口口 |②---|
口口口口 |③---|
39
口口口口 |①---|
口口口口 |----|
口口①①
口口口口

口②②口
口口口口
口③③口 |②---|
口口口口 |③---|
40
④口口④ |①---|
③口口③ |②---|
②口口② |③---|
①口口① |④---|
41
①口口口 |----|
②①口口 |----|
口②口口 |①---|
口口口口 |②---|
42
口口口② |①---|
口口②③ |----|
①口③口 |②---|
口①口口 |③---|
43
口口口口 |①---|
口②②口 |----|
口口口① |②---|
③口①③ |③---|
44
①口口① |①---|
②口口② |②---|
口口口口
口口口口

④口口④
口④④口
③口口③ |③---|
口口口口 |④---|
45
①口口口 |----|
②①口口 |----|
口②口口 |①---|
口口口口 |②---|
46
口口口② |①---|
口口②③ |----|
①口③口 |②---|
口①口口 |③---|
47
口口口口 |①---|
口②③口 |----|
口④口① |--②-|
口口①口 |③-④-|
48
②口口口 |①---|
④口⑤⑤ |②-③-|
口口③③ |--④-|
口口①① |⑤---|
49
③口口③ |----|
③口口③ |①---|
口①①口 |②---|
②口口② |③---|
50
口①①口 |①---|
口②③口 |--②-|
④口口口 |③---|
口口口口 |--④-|
51
②口口② |①---|
③口口③ |②---|
口口口① |③---|
口口口口 |----|
52
口①②口 |①-②-|
口③④口 |③-④-|
口⑤⑥口 |⑤-⑥-|
口⑦⑧口 |⑦-⑧-|
53
①口口① |①---|
②口口② |②---|
③口口③ |③---|
口口口口 |----|
54
①口口① |①---|
口②③口 |--②-|
口④口口 |③---|
口口口口 |--④-|
55
②口口② |①---|
③口口③ |②---|
④口①④ |③---|
口口口口 |④---|
56
④口口④ |①---|
口③③口 |②---|
口②②口 |③---|
①口口① |④---|
57
口口口口 |----|
①口口口 |----|
口口口口 |----|
口口口口 |--①-|
58
口口口口 |①-②-|
口①④③ |--③-|
②⑥口⑤ |④-⑤-|
口口口口 |--⑥-|
59
④口口④ |①-②-|
⑤口口口 |③---|
口口①口 |④---|
口②③口 |--⑤-|
60
口口口口 |①-②-|
口①④③ |--③-|
②⑥口⑤ |④-⑤-|
口口口口 |--⑥-|
61
④口口④ |①-②-|
口口口口 |③---|
口口①口 |④---|
口②③口 |----|
62
口①①口 |①---|
②口口③ |--②-|
口④口口 |③---|
口口口口 |--④-|
63
②口口② |①---|
③口口③ |②---|
口口①口 |③-④-|
口④⑤口 |⑤---|
64
④口口④ |①---|
口①①口 |②---|
②口口② |③---|
口③③口 |④---|
65
口口口口 |----|
口口口口 |----|
口口口口 |----|
口口口口 |----|
66
口①①口 |①---|
③口⑥② |②-③-|
口⑤口口 |--④-|
口口④口 |⑤-⑥-|
67
①口口① |--①-|
②口口② |--②-|
③口口③ |--③-|
口口口口 |----|
68
口①①口 |①---|
③口⑥② |②-③-|
口⑤口口 |--④-|
口口④口 |⑤-⑥-|
69
⑤口口⑤ |--①-|
口①口口 |②-③-|
④口②④ |--④-|
口③口口 |⑤---|
70
口口口口 |①-②-|
②⑥①⑤ |③-④-|
口口口口 |--⑤-|
④口③⑦ |⑥-⑦-|
71
②口①口 |--①-|
口口口口 |②-③-|
口口③口 |--④-|
口④④口 |----|
72
⑤⑥⑥⑤ |①-②-|
口③④口 |③-④-|
口①②口 |⑤---|
口口口口 |⑥---|

最終更新:2019年02月12日 01:55