アットウィキロゴ

AIR RAID FROM THA UNDAGROUND
GUHROOVY

EXTREME

Level: 10
BPM: 180
Notes: 967

1
口口口口 |----|
口口口口 |----|
口口口口 |----|
口口口口 |----|
2
口口口口 |①-②-|
口口②④ |③-④-|
③①口口 |----|
口口口口 |----|
3
口口口口 |----|
口口口口 |----|
口口口口 |----|
口口口口 |----|
4
口口口口 |①-②-|
③①口口 |③-④-|
口口②④ |----|
口口口口 |----|
5
口口口口 |----|
口口口口 |----|
口口口口 |----|
口口口口 |----|
6
口口④口 |①-②-|
口口②口 |③-④-|
口①口口 |----|
口③口口 |----|
7
口口口口 |----|
口口口口 |----|
口口口口 |----|
口口口口 |----|
8
口③口口 |①-②-|
口①口口 |③-④-|
口口②口 |----|
口口④口 |----|
9
口①口口 |----|
①口口口 |----|
口口口① |----|
口口①口 |①---|
10
口口口① |①-②-|
口口⑥⑤ |③-④⑤|
②③⑦口 |⑥-⑦-|
①④⑧⑨ |⑧-⑨-|
11
⑤④③口 |①---|
口②口⑥ |②-③④|
⑦口口① |⑤-⑥-|
口口口⑧ |⑦-⑧-|
12
口⑥⑤④ |①-②-|
③口⑦口 |③-④⑤|
口⑧口② |⑥-⑦-|
①口⑨口 |⑧-⑨-|
13
③④⑤口 |①---|
②⑥口② |②-③④|
①口⑦① |⑤-⑥-|
口⑧口口 |⑦-⑧-|
14
口④⑤⑥ |①-②-|
⑦口③口 |③-④⑤|
口②口⑧ |⑥-⑦-|
⑨口①口 |⑧-⑨-|
15
⑤④③口 |①---|
口②②⑥ |②-③④|
⑦①①口 |⑤-⑥-|
口口口⑧ |⑦-⑧-|
16
口⑤④口 |①-②-|
⑥③⑦口 |③-④⑤|
口⑧②⑨ |⑥-⑦-|
口①口口 |⑧-⑨-|
17
④③④③ |①---|
③②③② |②---|
①④①④ |③---|
②①②① |④---|
18
⑧口口⑦ |①---|
③④口② |②-③④|
①⑥⑤口 |⑤-⑥-|
②⑦⑤① |⑦-⑧-|
19
⑦口口⑧ |①---|
口⑤⑥② |②-③④|
①口④③ |⑤-⑥-|
②⑦⑤① |⑦-⑧-|
20
⑧口口⑦ |①---|
③④口② |②-③④|
①⑥⑤口 |⑤-⑥-|
②⑦⑤① |⑦-⑧-|
21
⑦口口⑧ |①---|
口⑤⑥② |②-③④|
①口④③ |⑤-⑥-|
②⑦⑤① |⑦-⑧-|
22
⑧口口⑦ |①---|
③④口② |②-③④|
①⑥⑤口 |⑤-⑥-|
②⑦⑤① |⑦-⑧-|
23
⑦口口⑧ |①---|
口⑤⑥② |②-③④|
①口④③ |⑤-⑥-|
②⑦⑤① |⑦-⑧-|
24
⑧①①⑦ |①---|
③④口② |②-③④|
⑥⑤⑤⑤ |⑤-⑥-|
②⑦⑤① |⑦-⑧-|
25
口①①口 |①---|
口③③口 |②---|
口④④口 |③-④-|
②⑤⑤② |⑤---|
26
②⑤⑥③ |①②-③|
⑧⑫⑭⑩ |④⑤-⑥|
④口口① |⑦⑧⑨⑩|
⑦⑪⑬⑨ |⑪⑫⑬⑭|
27
②⑤⑥③ |①②-③|
⑧⑫⑭⑩ |④⑤-⑥|
④口口① |⑦⑧⑨⑩|
⑨⑬⑪⑦ |⑪⑫⑬⑭|
28
②⑤⑥③ |①②-③|
⑧⑫⑭⑩ |④⑤-⑥|
④口口① |⑦⑧⑨⑩|
⑦⑪⑬⑨ |⑪⑫⑬⑭|
29
②⑤⑥③ |①②-③|
⑧⑫⑭⑩ |④⑤-⑥|
④口口① |⑦⑧⑨⑩|
⑨⑬⑪⑦ |⑪⑫⑬⑭|
30
②⑤⑥③ |①②-③|
⑧⑫⑭⑩ |④⑤-⑥|
④口口① |⑦⑧⑨⑩|
⑦⑪⑬⑨ |⑪⑫⑬⑭|
31
②⑤⑥③ |①②-③|
⑧⑫⑭⑩ |④⑤-⑥|
④口口① |⑦⑧⑨⑩|
⑨⑬⑪⑦ |⑪⑫⑬⑭|
32
①口口① |①---|
⑦口口⑦ |②---|
②④③② |③④⑤⑥|
③⑥⑤③ |⑦---|
33
①④④① |①---|
⑤②②⑥ |②---|
口③③口 |③---|
口口口口 |④-⑤-⑥-|
34
④⑤⑥口 |①---②-|
口⑦⑧⑨ |③---|
③口口③ |④-⑤-⑥-|
②①①② |⑦-⑧-⑨-|
35
④⑤⑥口 |①---②-|
口⑧口⑦ |③---|
③口口③ |④-⑤-⑥-|
②①①② |⑦---⑧-|
36
④⑤⑥口 |①---②-|
口⑦⑧⑨ |③---|
③口口③ |④-⑤-⑥-|
②①①② |⑦-⑧-⑨-|
37
④⑤⑥口 |①---②-|
口⑧口⑦ |③---|
③口口③ |④-⑤-⑥-|
②①①② |⑦---⑧-|
38
④⑤⑥口 |①---②-|
口⑦⑧⑨ |③---|
③口口③ |④-⑤-⑥-|
②①①② |⑦-⑧-⑨-|
39
④⑤⑥口 |①---②-|
口⑧口⑦ |③---|
③口口③ |④-⑤-⑥-|
②①①② |⑦---⑧-|
40
口口④口 |①---②-|
⑧⑦⑦⑧ |③---|
③⑤⑥③ |④-⑤-⑥-|
②①①② |⑦---⑧-|
41
①口④① |①---|
口口口④ |②---|
②口③口 |③---|
口口口口 |④---|
42
⑥口口④ |①-②-|
③⑦口⑦ |③-④⑤|
⑧⑤口② |⑥-⑦-|
①④①⑨ |⑧-⑨-|
43
⑥口⑧④ |①-②-|
③⑧④⑦ |③-④⑤|
⑨④⑦② |⑥-⑦-|
①⑤①⑩ |⑧⑨⑩-|
44
⑥口口④ |①-②-|
③⑦口⑦ |③-④⑤|
⑧⑤口② |⑥-⑦-|
①④①⑨ |⑧-⑨-|
45
⑥口⑧④ |①-②-|
③口④⑦ |③-④⑤|
⑨口⑦② |⑥-⑦-|
①⑤①⑩ |⑧⑨⑩-|
46
⑥口口④ |①-②-|
③⑦口⑦ |③-④⑤|
⑧⑤口② |⑥-⑦-|
①④①⑨ |⑧-⑨-|
47
⑥口⑧④ |①-②-|
③⑧④⑦ |③-④⑤|
⑨④⑦② |⑥-⑦-|
①⑤①⑩ |⑧⑨⑩-|
48
⑥口口④ |①-②-|
③⑦口⑦ |③-④⑤|
⑧⑤口② |⑥-⑦-|
①④①⑨ |⑧-⑨-|
49
⑥口口④ |①-②-|
③⑧④⑦ |③-④⑤|
⑧口⑦② |⑥-⑦-|
①⑤①口 |⑧---|
50
⑤⑨②口 |①-②③|
口⑫⑥⑩ |④-⑤⑥|
⑧③口⑪ |-⑦⑧⑨|
①口⑦④ |⑩-⑪⑫|
51
⑤⑨②口 |①-②③|
口⑫⑥⑩ |④-⑤⑥|
⑧③口⑪ |-⑦⑧⑨|
①口⑦④ |⑩-⑪⑫|
52
⑤⑨②口 |①-②③|
口⑫⑥⑩ |④-⑤⑥|
⑧③口⑪ |-⑦⑧⑨|
①口⑦④ |⑩-⑪⑫|
53
⑤⑨②口 |①-②③|
口⑫⑥⑩ |④-⑤⑥|
⑧③口⑪ |-⑦⑧⑨|
①口⑦④ |⑩-⑪⑫|
54
⑤⑨②口 |①-②③|
口⑫⑥⑩ |④-⑤⑥|
⑧③口⑪ |-⑦⑧⑨|
①口⑦④ |⑩-⑪⑫|
55
⑤⑨②口 |①-②③|
口⑫⑥⑩ |④-⑤⑥|
⑧③口⑪ |-⑦⑧⑨|
①口⑦④ |⑩-⑪⑫|
56
⑤⑨②口 |①-②③|
口⑫⑥⑩ |④-⑤⑥|
⑧③口⑪ |-⑦⑧⑨|
①口⑦④ |⑩-⑪⑫|
57
⑦口②⑧ |①---|
⑨口⑥⑩ |②-③④|
⑪⑤口口 |⑤⑥⑦⑧|
③①口④ |⑨⑩⑪-|
58
⑦⑨⑧⑥ |①-②-|
口⑤口口 |③-④⑤|
口口③① |⑥-⑦-|
④②①③ |⑧-⑨-|
59
⑥⑧⑦⑤ |①-②-|
口口⑨口 |③-④-|
口口口口 |⑤-⑥-|
④②①③ |⑦-⑧⑨|
60
⑦⑨⑧⑥ |①-②-|
口⑤口口 |③-④⑤|
口口③① |⑥-⑦-|
④②①③ |⑧-⑨-|
61
⑥⑧⑦⑤ |①-②-|
⑩口口⑨ |③-④-|
口口口口 |⑤-⑥-|
④②①③ |⑦⑧⑨⑩|
62
⑦⑨⑧⑥ |①-②-|
口⑤口口 |③-④⑤|
口口③① |⑥-⑦-|
④②口③ |⑧-⑨-|
63
⑥⑧⑦⑤ |①-②-|
口口⑨口 |③-④-|
口口口口 |⑤-⑥-|
④②①③ |⑦-⑧⑨|
64
⑦⑨⑧⑥ |①-②-|
口⑤口口 |③-④⑤|
口口③① |⑥-⑦-|
④②①③ |⑧-⑨-|
65
⑥⑧⑦⑤ |①-②-|
口口口口 |③-④-|
口口口口 |⑤-⑥-|
④②①③ |⑦-⑧-|
66
口口口口 |①-②③|
口①⑦⑥ |④-⑤-|
口④⑤② |-⑥⑦-|
口⑧③⑨ |⑧-⑨-|
67
口口口口 |①-②③|
口①⑦⑥ |④-⑤-|
口④⑤② |-⑥⑦-|
⑨⑧③⑨ |⑧-⑨-|
68
口口口口 |①-②③|
①①⑦⑥ |④-⑤-|
口④⑤② |-⑥⑦-|
口⑧③⑨ |⑧-⑨-|
69
口口口口 |①-②③|
口①⑦⑥ |④-⑤-|
口④⑤② |-⑥⑦-|
⑧⑧③⑨ |⑧-⑨-|
70
①口口口 |①-②③|
口①⑦⑥ |④-⑤-|
口④⑤② |-⑥⑦-|
口⑧③⑨ |⑧-⑨-|
71
口口口口 |①-②③|
口①⑦⑥ |④-⑤-|
口④⑤② |-⑥⑦-|
⑧⑧③⑨ |⑧-⑨-|
72
①口口口 |①-②③|
口①⑦⑥ |④-⑤-|
口④⑤② |-⑥⑦-|
口⑧③⑨ |⑧-⑨-|
73
口⑥口口 |①-②-|
⑥①口⑤ |③-④-|
④②⑤③ |⑤---|
②口口口 |⑥---|
74
口口④① |①-②③|
⑪①⑧⑦ |④-⑤-|
⑨④⑤② |⑥⑦⑧-|
⑥⑨③⑩ |⑨-⑩⑪|
75
⑥⑨④① |①-②③|
⑫①⑧⑦ |④-⑤-|
⑩④⑤② |⑥⑦⑧-|
口⑨③⑪ |⑨⑩⑪⑫|
76
口口④① |①-②③|
⑪①⑧⑦ |④-⑤-|
⑨④⑤② |⑥⑦⑧-|
⑥⑨③⑩ |⑨-⑩⑪|
77
⑩⑨④① |①-②③|
口①⑥⑥ |④-⑤-|
⑧④⑤② |⑥---|
口⑦③口 |⑦⑧⑨⑩|
78
口⑪④① |①-②③|
口①⑧⑦ |④-⑤-|
⑨④⑤② |⑥⑦⑧-|
⑥⑨③⑩ |⑨-⑩⑪|
79
⑥⑨④① |①-②③|
⑫①⑧⑦ |④-⑤-|
⑩④⑤② |⑥⑦⑧-|
口⑨③⑪ |⑨⑩⑪⑫|
80
口口④① |①-②③|
⑪①⑧⑦ |④-⑤-|
⑨④⑤② |⑥⑦⑧-|
⑥⑨③⑩ |⑨-⑩⑪|
81
①⑥⑤① |①---|
⑫口⑪⑨ |②③④⑤|
⑩②⑦口 |⑥⑦⑧⑨|
④⑧③⑬ |⑩⑪⑫⑬|
82
口口④① |①-②③|
口①⑧⑦ |④-⑤-|
⑨④⑤② |⑥⑦⑧-|
⑥⑨③⑩ |⑨-⑩-|
83
⑥⑨④① |①-②③|
口①⑧⑦ |④-⑤-|
口④⑤② |⑥⑦⑧-|
口⑨③⑩ |⑨-⑩-|
84
口口④① |①-②③|
口①⑧⑦ |④-⑤-|
⑨④⑤② |⑥⑦⑧-|
⑥⑨③⑩ |⑨-⑩-|
85
⑦①②口 |①②③④|
⑤口口⑧ |⑤⑥⑦⑧|
口③④⑥
口口口口

口⑫口口
口口⑨口
口口口口 |⑨---|
⑨⑩口⑪ |⑩-⑪-⑫-|
86
口口④① |①-②③|
口①⑧⑦ |④-⑤-|
⑨④⑤② |⑥⑦⑧-|
⑥⑨③⑩ |⑨-⑩-|
87
⑥⑨④① |①-②③|
口①⑧⑦ |④-⑤-|
口④⑤② |⑥⑦⑧-|
口⑨③⑩ |⑨-⑩-|
88
⑤口口① |①-②-|
③①口口 |③-④-|
口⑦⑥④ |⑤-⑥-|
口口②⑧ |⑦-⑧-|
89
⑬①⑥⑯ |①②③④|
③⑤⑧⑩ |⑤⑥⑦⑧|
⑦⑮⑭④ |⑨⑩⑪⑫|
⑨⑪②⑫ |⑬⑭⑮⑯|
90
口①口口 |①---|
①口口口 |----|
口口口① |----|
口口①口 |----|


不确定度: 0

最終更新:2012年11月10日 15:15