アットウィキロゴ

Find your way
J.Speaks

BASIC

Level: 2
BPM: 130
Notes: 214

1
口口口口 |----|
口口口口 |----|
口口口口 |----|
口口口口 |----|
2
口口口口 |①---|
口②②口 |----|
口①①口 |②---|
口口口口 |----|
3
口口口口 |①---|
②口口② |----|
①口口① |②---|
口口口口 |----|
4
口口口口 |①---|
口②②口 |----|
口①①口 |②---|
口口口口 |----|
5
口口口口 |①---|
②口口② |----|
①口口① |②---|
口口口口 |----|
6
口口③口 |①---|
口口②口 |----|
口①①口 |②---|
口口口口 |③---|
7
口③口口 |①---|
口②口口 |----|
口①①口 |②---|
口口口口 |③---|
8
口口③口 |①---|
口口②口 |----|
口①①口 |②---|
口口口口 |③---|
9
口口口口 |①---|
口口口口 |----|
口①①口
口口口口

口口口口
②口口②
口③③口 |②---|
口口口口 |③---|
10
口口口口 |①---|
口①①口 |----|
口口口口 |----|
口口口口 |----|
11
口口口口 |----|
口口口口 |----|
①口口① |----|
口口口口 |①---|
12
口口口口 |①---|
①口口① |----|
口②②口 |②---|
口口口口 |----|
13
口口口口 |----|
口口口口 |----|
口①①口 |----|
口口口口 |①---|
14
口口口口 |①---|
口①①口 |----|
口口口口 |----|
口口口口 |----|
15
口口口口 |----|
口口口口 |----|
①口口① |----|
口口口口 |①---|
16
口口口口 |①---|
①口口① |----|
口②②口 |②---|
口口口口 |----|
17
口口口口 |①---|
①③③② |②---|
①③③② |③---|
口口口口 |----|
18
口口口口 |①---|
①口口① |----|
②口口② |②---|
口口口口 |----|
19
口口口口 |①---|
①②③④ |②---|
口口口口 |③---|
口口口口 |④---|
20
口口口口 |①---|
口②②口 |----|
口①①口 |②---|
口口口口 |----|
21
口口口口 |①---|
②口口② |----|
①口口① |②---|
口口口口 |----|
22
口口口口 |①---|
口④②口 |②---|
口③①口 |③---|
口口口口 |④---|
23
口口口口 |①---|
②口口② |----|
①口口① |②---|
口口口口 |----|
24
口口口口 |①---|
口口口口 |②---|
①②③④ |③---|
口口口口 |④---|
25
口③③口 |①---|
口①①口 |②---|
口②②口 |③---|
口口口口 |----|
26
口口口口 |①---|
口②③口 |②---|
口④①口 |③---|
口口口口 |④---|
27
口口口口 |①---|
口口口口 |②---|
②口口① |③---|
口③③口 |----|
28
口口口口 |①---|
口②③口 |②---|
口④①口 |③---|
口口口口 |④---|
29
口口口口 |①---|
口口口口 |②---|
②口口① |③---|
口③③口 |----|
30
口口口口 |①---|
②④口口 |②---|
①③口口 |③---|
口口口口 |④---|
31
口口口口 |①---|
口口②④ |②---|
口口①③ |③---|
口口口口 |④---|
32
口口口口 |①---|
口②②口 |----|
口①①口 |②---|
口口口口 |----|
33
口口口口 |①---|
口③③口 |②---|
①②②① |③---|
口口口口 |----|
34
口口口口 |①---|
①②④③ |②---|
口口口口 |③---|
口口口口 |④---|
35
口口口口 |①---|
口口口口 |----|
口①①口 |②---|
口②②口 |----|
36
口口口口 |①---|
①②④③ |②---|
口口口口 |③---|
口口口口 |④---|
37
口口口口 |①---|
口②②口 |----|
①口口① |②---|
口口口口 |----|
38
口口口口 |①---|
①②④③ |②---|
口口口口 |③---|
口口口口 |④---|
39
口口口口 |①---|
口口口口 |----|
口①①口 |②---|
口②②口 |----|
40
口口口口 |①---|
①②④③ |②---|
口口口口 |③---|
口口口口 |④---|
41
口口口口 |①---|
口口口口 |②---|
②①①②
口口口口

口口口口
③口口③
口④④口 |③---|
口口口口 |④---|
42
口口口口 |①---|
口①①② |②---|
口口口口
口口口口

口口口口
口④④口
口口口③ |③---|
口口口口 |④---|
43
口口口口 |①---|
口口口口 |②---|
②①①口
口口口口

口口口口
③口口口
口④④口 |③---|
口口口口 |④---|
44
口口口口 |①---|
口①①② |②---|
口口口口
口口口口

口口口口
口④④口
口口口③ |③---|
口口口口 |④---|
45
口口口口 |①---|
②口口口 |②---|
口①①口
口口口口

口口口口
口口口口
③④④口 |③---|
口口口口 |④---|
46
③口口② |①---|
口①①④ |②---|
口口口口 |③---|
口口口口 |④---|
47
口口口口 |①---|
①口口口 |②---|
③④④② |③---|
口口口口 |④---|
48
口口口口 |①---|
②①①② |②---|
口③③口 |③---|
口④④口 |④---|
49
口口口口 |①---|
①③③② |②---|
①③③② |③---|
口口口口 |----|

不確定度: 0

最終更新:2014年08月01日 00:01