アットウィキロゴ

シンデレラ
奥華子

ADVANCED

Level: 5
BPM: 120
Notes: 314

1
口口口口 |----|
口口口口 |----|
口口口口 |----|
口口口口 |----|
2
口口口口 |①---|
口①①口 |--②-|
口②口口
口口口口

口⑥口口
口口⑤口
口口④口 |③-④-|
口口③口 |⑤-⑥-|
3
③口①口 |----|
③②②口 |①-②-|
口口口口 |----|
口口口口 |③---|
4
口口口① |①---|
口②口① |②-③-|
口口③口 |----|
口④④口 |④---|
5
口口③口 |①-②-|
口②④口 |③-④-|
口①口口
口口口口

口口口口
口口口口
口⑤口口 |----|
口口口口 |⑤---|
6
口口口口 |①---|
口①①口 |--②-|
口②口口
口口口口

口⑥口口
口口⑤口
口口④口 |③-④-|
口口③口 |⑤-⑥-|
7
口口①口 |----|
口②②口 |①-②-|
口口口口 |----|
口③③口 |③---|
8
口①①口 |①---|
口②②口 |--②-|
口③③口 |----|
口口口口 |③---|
9
③口口口 |①---|
②口口口 |----|
①口口① |----|
口口口口 |②-③-|
10
口口①② |①-②-|
口⑥③口 |③-④-|
口④⑤⑦ |⑤-⑥-|
口口口口 |--⑦-|
11
口②口口 |①-②-|
③口①口 |③-④-|
口④口⑥ |----|
口口口⑤ |⑤-⑥-|
12
口⑥⑤口 |①-②-|
④⑦口① |③-④-|
③口口口 |⑤-⑥-|
②口口口 |--⑦-|
13
口口口口 |①-②-|
口口①⑥ |③-④-|
口②③⑤ |----|
口④口口 |⑤-⑥-|
14
口口口口 |①-②-|
①口口口 |--③-|
②⑤④口 |④-⑤-|
⑥口⑦③ |⑥-⑦-|
15
口口①口 |--①-|
口②③口 |②-③-|
口口口口
口口口口

口口口口
口⑤口口
口口口④ |----|
口口口口 |④-⑤-|
16
口⑦⑧口 |①-②-|
②口④⑥ |③-④-|
③⑤①口 |⑤-⑥-|
口口口口 |⑦-⑧-|
17
口口口口 |①---|
口①①口 |----|
②③口口 |----|
口口口口 |②-③-|
18
口口口口 |①-②-|
③④①② |③-④-|
⑦⑧⑤⑥ |⑤-⑥-|
口口口口 |⑦-⑧-|
19
口③②口 |①-②-|
④口口① |③-④-|
⑤⑦⑥口 |--⑤-|
口口口口 |⑥-⑦-|
20
口口口口 |①-②-|
⑥口口口 |③-④-|
口⑦口① |⑤---|
②④③⑤ |⑥-⑦-|
21
口口口口 |①-②-|
口③④② |③-④-|
⑤口①⑥ |----|
口口口口 |⑤-⑥-|
22
口口口口 |①-②-|
口①②口 |③-④-|
口③④口
口口口口

口口口口
⑤口口⑥
口⑦口口 |--⑤-|
口口口口 |⑥-⑦-|
23
口口口口 |①-②-|
口②③口 |③-④-|
口口①口
口④口口

口口口口
⑤⑥⑥⑤
口口口口 |--⑤-|
口口口口 |--⑥-|
24
口口口口 |--①-|
口口口口 |--②-|
②①①③ |③-④-|
④⑥口⑤ |⑤-⑥-|
25
口口口口 |①---|
③口口口 |----|
②口口口 |----|
口口①口 |②-③-|
26
口口④① |①---|
口③⑤口 |②-③-|
口②⑥口 |--④-|
口口口口 |⑤-⑥-|
27
口口口口 |①-②-|
口②口口 |③-④-|
口③口口
口④①口

口口口口
口口⑦口
口口⑥口 |--⑤-|
口口⑤口 |⑥-⑦-|
28
口③①口 |①---|
口口口口 |②-③-|
口②⑤口 |----|
口口④口 |④-⑤-|
29
口③口口 |①---|
口②①口 |②-③-|
口口口口 |--④-|
口④⑤⑥ |⑤-⑥-|
30
口口口口 |①---|
①口②③ |②-③-|
口⑤④口 |----|
口口口口 |④-⑤-|
31
口口口口 |①---|
口口口口 |②-③-|
①口口口
口口③②

口口口口
口口口口
④口口⑤ |--④-|
口⑥口口 |⑤-⑥-|
32
①③②④ |①-②-|
①③口口 |③-④-|
⑤⑥口口 |--⑤-|
口口口口 |--⑥-|
33
④②③① |①-②-|
口口③① |③-④-|
口⑥⑦⑤ |⑤-⑥-|
口口⑦⑤ |⑦---|
34
①口口口 |①---|
①口口口 |--②-|
口口口口
口②②口

⑥⑤⑤⑥
口④④口
口③③口 |③-④-|
口口口口 |⑤-⑥-|
35
口口口口 |----|
口口口口 |----|
口口口口 |----|
口口口口 |----|
36
口口口口 |----|
口⑤口口 |--①-|
①③②④ |②-③-|
口口口口 |④-⑤-|
37
③③①① |①---|
口口②口 |②-③-|
口④口口 |----|
口口口口 |--④-|
38
③③①① |①---|
口口口口 |②-③-|
口口②口
口口口口

口口口口
口口④口
口口⑤口 |----|
口口口口 |④-⑤-|
39
③③口口 |①---|
口口口口 |②-③-|
口口口口
口①②口

口口⑥⑥
口口口口
口⑤口口 |--④-|
口④口口 |⑤-⑥-|
40
口口口口 |--①-|
②④①③ |----|
口口口口 |--②-|
口口口口 |③-④-|
41
口⑤⑥口 |①-②-|
口⑦①口 |③-④-|
口②③口 |--⑤-|
口④口口 |⑥-⑦-|
42
③③⑤⑤ |①---|
口口①口 |②-③-|
口④②口 |--④-|
口口口口 |⑤---|
43
口口口口 |①-②-|
①④④① |③-④-|
②③③② |----|
口口口口 |----|
44
口口口口 |----|
口⑤口口 |--①-|
①③②④ |②-③-|
口口口口 |④-⑤-|
45
③③①① |①---|
口口②口 |②-③-|
口④口口 |----|
口口口口 |--④-|
46
③③①① |①---|
口④⑤口 |②-③-|
口⑥②口 |--④-|
口口口口 |⑤-⑥-|
47
口口口口 |①---|
口口口口 |--②-|
口口①口
口②②口

口④口口
③口口③
口口⑤⑤ |③---|
口口口口 |④-⑤-|
48
口口①口 |--①-|
口口④口 |②---|
②②③口 |----|
口口口口 |③-④-|
49
①④⑤③ |①---|
①⑥口③ |②-③-|
口②口口 |--④-|
口口口口 |⑤-⑥-|
50
③③⑥⑥ |①---|
口⑤①口 |②-③-|
口④②口 |--④-|
口口口口 |⑤-⑥-|

不確定度: 0

最終更新:2014年08月01日 02:25