アットウィキロゴ

Wow Wow VENUS
VENUS

ADVANCED

Level: 7
BPM: 157
Notes: 592

1
口口口口 |----|
口口口口 |----|
口口口口 |----|
口口口口 |----|
2
⑤⑤①② |①-②-|
③⑦口口 |③-④-|
口口口口 |⑤--⑥|
⑥口④口 |-⑦--|
3
口口口① |①-②-|
口口口② |③-④-|
③④⑥⑤ |⑤--⑥|
⑦口⑥⑤ |--⑦-|
4
口口①② |①-②-|
⑤⑤⑦口 |③-④-|
③口口口 |⑤--⑥|
口⑥④口 |-⑦--|
5
口口⑥⑥ |①-②-|
③口口口 |③-④-|
①④⑤⑤ |⑤---|
口口②口 |⑥---|
6
②①⑤⑤ |①-②-|
口口⑦③ |③-④-|
口口口口 |⑤--⑥|
口④口⑥ |-⑦--|
7
①口口口 |①-②-|
②口口口 |③-④-|
⑤⑥④③ |⑤--⑥|
⑤⑥口⑦ |--⑦-|
8
②①口口 |①-②-|
口⑦⑤⑤ |③-④-|
口口口③ |⑤--⑥|
口④⑥口 |-⑦--|
9
⑥⑥口口 |①-②-|
口口口③ |③-④-|
⑤⑤④① |⑤---|
口②口口 |⑥---|
10
口口②③ |①---|
口口口① |②---|
口口③② |③---|
口口①口 |----|
11
口口②③ |①---|
口口口① |②---|
口口③② |③---|
口口①口 |----|
12
口口②③ |①---|
口口口① |②---|
口口③② |③---|
口口①口 |----|
13
口口②③ |①---|
口④④① |②---|
口口③② |③--④|
口口①口 |----|
14
④④口口 |----|
口口③口 |①--②|
口②口口 |③-④-|
①⑤⑤① |--⑤-|
15
口口①口 |--①-|
口口口② |②-③-|
口口③口 |④---|
⑥⑤口④ |⑤-⑥-|
16
口①口③ |--①-|
口口口口 |②-③-|
口口口②
口口口口

口⑦口口
④⑦⑤口
口口口口 |④-⑤-|
口口⑥口 |⑥-⑦-|
17
④口③⑥ |--①-|
④口⑤⑥ |②-③-|
口②口① |④---|
口口口口 |⑤-⑥-|
18
④④口口 |----|
口口③口 |①--②|
①②口① |③-④-|
①⑤⑤① |--⑤-|
19
⑥③口口 |--①-|
⑥⑤②口 |②-③-|
①口④口 |④---|
口口口口 |⑤-⑥-|
20
口口口⑤ |--①-|
⑥口②口 |②-③-|
④口口⑦ |④-⑤-|
口①③⑦ |⑥-⑦-|
21
口口③口 |--①-|
口④口口 |②---|
②口⑤口 |--③-|
②①口口 |④-⑤-|
22
①②口③ |①--②|
口口口口 |--③-|
口口口口
口③①②

口口④口
口口口口
口⑤⑤口 |④--⑤|
④口⑥⑥ |--⑥-|
23
口①②③ |①--②|
①②③④ |--③-|
④⑤⑤口 |④--⑤|
⑥口口⑥ |--⑥-|
24
③口③口 |①--②|
④③④口 |--③-|
口④口口 |④---|
口②①口 |----|
25
口⑦⑥⑤ |①--②|
④口④口 |--③-|
②③②口 |④-⑤-|
口①口口 |⑥-⑦-|
26
①口口口 |①--②|
②口口口 |--③-|
③口口口 |④---|
④口口口 |----|
27
口口口口 |①--②|
口③②口 |--③-|
口①口口
口口口口

口口口口
口口⑥口
口⑤④口 |④--⑤|
口口口口 |--⑥-|
28
①②口③ |①--②|
口口口口 |--③-|
口口口口
口③①②

口口④口
口⑤⑤口
口口口口 |④--⑤|
④口⑥⑥ |--⑥-|
29
①①口口 |①--②|
口口口③ |--③-|
口口口③
②②口口

口口口口
口口口口
口④④口 |④--⑤|
⑥⑥⑤⑤ |--⑥-|
30
①口口① |①---|
口②②口 |--②-|
口③③口 |③---|
口口口口 |----|
31
口口口① |----|
口口①口 |----|
口①口口 |----|
①口口口 |①---|
32
②①口口 |①---|
①口③口 |--②-|
口④口① |③-④-|
⑥口①⑤ |⑤-⑥-|
33
口口⑤① |①--②|
口②口⑤ |--③-|
⑤④③口 |④---|
口⑤口口 |⑤---|
34
①口③口 |①---|
②④④③ |②---|
口口口口 |③---|
③口②① |--④-|
35
口口⑥口 |-①②③|
口口口⑥ |④-⑤-|
①②③④ |⑥---|
⑥⑤⑤⑦ |--⑦-|
36
口口②口 |--①-|
⑥③口口 |②-③-|
①口口⑤ |④---|
口④口口 |⑤-⑥-|
37
口口②⑤ |--①-|
口③⑦口 |②-③-|
⑥口①④ |④-⑤-|
口口口口 |⑥-⑦-|
38
①口③口 |①---|
②④④③ |②---|
口口口口 |③---|
③口②① |--④-|
39
口口⑥口 |-①②③|
口口口⑥ |④-⑤-|
①②③④ |⑥---|
⑥⑤⑤⑦ |--⑦-|
40
口②口口 |--①-|
口③①口 |②-③-|
⑤口口④ |④--⑤|
口⑥⑥口 |--⑥-|
41
口②口③ |--①-|
口⑦①口 |②-③-|
④口⑤口 |④-⑤-|
口⑥口口 |⑥-⑦-|
42
口口②③ |①---|
口口口① |②---|
口口③② |③---|
口口①口 |----|
43
口口②③ |①---|
口口口① |②---|
口口③② |③---|
口口①口 |----|
44
口口②③ |①---|
口口口① |②---|
口口③② |③---|
口口①口 |----|
45
口口②③ |①---|
口④④① |②---|
口口③② |③---|
口口①口 |④---|
46
①口③口 |①---|
②口口③ |②---|
口口口口 |③---|
③口②① |----|
47
口口⑤口 |①-②-|
口②①⑤ |③-④-|
口④③口 |⑤---|
⑤口口口 |----|
48
①口③口 |①---|
②口口③ |②---|
口口口口 |③---|
③口②① |----|
49
口口⑤口 |①-②-|
④③口⑤ |③-④-|
口口②① |⑤---|
⑤口口口 |----|
50
①口③口 |①---|
②口口③ |②---|
口口口口 |③---|
③口②① |----|
51
口④口⑤ |①-②-|
口口③口 |③-④-|
口②口口 |⑤---|
口口①口 |----|
52
①口③口 |①---|
②口口③ |②---|
口口口口 |③---|
③口②① |----|
53
口口⑤口 |①-②-|
④②口⑤ |③-④-|
口口①③ |⑤---|
⑤口口口 |----|
54
④④口① |①---|
②⑥①口 |②-③-|
口口⑤口 |④--⑤|
口口③口 |-⑥--|
55
口②①口 |①---|
②口口① |②---|
口口④③ |③--④|
⑤口④③ |--⑤-|
56
口⑥口① |①---|
④④①口 |②-③-|
②口口口 |④--⑤|
口口③⑤ |-⑥--|
57
口口①口 |①---|
②口口① |②-③-|
口③口口
口口口口

口⑤⑤口
口口口口
口口口口 |④---|
口④④口 |⑤---|
58
①口④④ |①---|
口①⑥② |②-③-|
口⑤口口 |④--⑤|
口③口口 |-⑥--|
59
口①②口 |①---|
①口口② |②---|
③④③④ |③--④|
口⑤⑤口 |--⑤-|
60
①口口① |①---|
口③口口 |②-③-|
口口②口
口口口口

口口④⑥
口口口口
⑤口口口 |④--⑤|
口口口口 |-⑥--|
61
口①口口 |①-②-|
②⑤⑤口 |③-④-|
口⑥⑥③ |⑤---|
口口④口 |⑥---|
62
①口③口 |①---|
②口④③ |②---|
口④口口 |③---|
③口②① |--④-|
63
口①②口 |--①-|
口口口② |----|
③口口③ |②---|
②口①口 |--③-|
64
口口口口 |--①-|
口①①口 |----|
口口口口 |----|
口口口口 |----|
65
口口②口 |①---|
①③③① |----|
①③③① |②---|
口②口口 |③---|
66
①口③口 |①---|
②④④③ |②---|
口口口口 |③---|
③口②① |--④-|
67
口口⑥口 |-①②③|
口口口⑥ |④-⑤-|
①②③④ |⑥---|
⑥⑤⑤⑦ |--⑦-|
68
口口②口 |--①-|
⑥③口口 |②-③-|
①口口⑤ |④--⑤|
口④口口 |--⑥-|
69
口口②⑤ |--①-|
口③⑦口 |②-③-|
⑥口①④ |④-⑤-|
口口口口 |⑥-⑦-|
70
①口③口 |①---|
②④④③ |②---|
口口口口 |③---|
③口②① |--④-|
71
口口⑥口 |-①②③|
口口口⑥ |④-⑤-|
①②③④ |⑥---|
⑥⑤⑤⑦ |--⑦-|
72
口②口口 |--①-|
口③①口 |②-③-|
⑤口口④ |④--⑤|
口⑥⑥口 |--⑥-|
73
口②口③ |--①-|
口⑦①口 |②-③-|
④口⑤口 |④-⑤-|
口⑥口口 |⑥-⑦-|
74
口①①口 |①---|
④⑤③② |②-③-|
口口⑦⑥ |④-⑤-|
口口口口 |⑥-⑦-|
75
①②④③ |①-②-|
⑤⑥⑧⑦ |③-④-|
口口口口 |⑤-⑥-|
口口口口 |⑦-⑧-|
76
口口口口 |①-②-|
口口口口 |③-④-|
③④⑧⑦ |⑤-⑥-|
①②⑥⑤ |⑦-⑧-|
77
②口口④ |①-②-|
口口口口 |③-④-|
口口口口
①口口③

口口⑥口
⑤口口⑥
口口口口 |--⑤-|
⑥口⑤口 |⑥---|


不確定度: 0

最終更新:2013年05月16日 13:54