アットウィキロゴ

Parachute
トクマルシューゴ

ADVANCED

Level: 5
BPM: 120
Notes: 345

BPM: 123
1
口口口口 |----|
口口口口 |----|
口口口口 |----|
口口口口 |----|
2
口口口口 |①--②|
口③②① |--③-|
口口口口
口口口口

BPM: 121

口口口口
④口口口
口⑤⑤口 |-④--|
口⑥⑥口 |⑤-⑥-|

BPM: 119
3
口口口口 |①--②|
④③②① |--③-|
口⑤⑤口 |-④--|
口⑥⑥口 |⑤-⑥-|

BPM: 119.74
4
口口口① |①--②|
④③②① |--③-|
口⑤⑤口 |-④--|
口⑥⑥口 |⑤-⑥-|
5
口口口① |①--②|
④③②① |--③-|
口⑤⑤口 |-④--|
口⑥⑥口 |⑤-⑥-|
6
口⑦口⑤ |①-②-|
⑥①⑥③ |③-④-|
②⑦④口 |⑤--⑥|
口口口口 |--⑦-|
7
口口口口 |--①-|
口口口口 |----|
①②口① |----|
口口口口 |---②|
8
口⑥口口 |①-②-|
⑥⑤⑥口 |③-④-|
口⑥①⑦ |⑤--⑥|
②④口③ |--⑦-|
9
②口①① |--①-|
②口口口 |-②--|
口③口口 |----|
口口口口 |---③|
10
口⑥⑤口 |①-②-|
⑤①③⑥ |③-④-|
口口口口 |⑤--⑥|
⑦④②⑦ |--⑦-|
11
口口口口 |--①-|
口口口口 |----|
①②口① |----|
口口口口 |---②|
12
口口口口 |①-②-|
口①③口 |③-④-|
口口口口
口④②口

口⑦口口
⑤⑦口⑥
⑤口口口 |⑤--⑥|
口口口口 |--⑦-|
13
口口口口 |--①-|
口口①口 |----|
口口口口 |----|
口口①口 |----|
14
①口口① |①---|
口①①口 |----|
口③③口 |----|
口②②口 |②-③-|
15
口口口口 |----|
口②口③ |---①|
口①口口 |②--③|
④口口口 |--④-|
16
口口口口 |①---|
②口口② |----|
口①①口 |----|
口口口口 |--②-|
17
①①①① |----|
口口口口 |----|
口②②口 |①---|
口口口口 |②---|
18
口口口口 |①---|
①口口① |----|
口口口口
①口口①

口口④口
口口口③
口口口口 |②---|
口②口口 |③-④-|
19
口口口口 |--①-|
口口口口 |----|
口口口口 |----|
口口①口 |----|
20
口口口口 |①---|
①口口① |----|
口口口口
①口口①

口口④口
口口口③
口口口口 |②---|
口②②口 |③-④-|
21
口口口口 |--①-|
口口③口 |----|
口②口口 |----|
口口①口 |②-③-|
22
口口口口 |--①-|
口口口口 |--②-|
口口①① |----|
②②口口 |----|
23
①口口① |①---|
口②③口 |----|
口③②口 |②---|
口口口④ |③-④-|
24
口口口口 |①---|
①口⑤② |②---|
②④口① |③---|
口③③口 |④-⑤-|
25
①口①口 |①---|
口口口口 |②---|
②口②口
口口口口

口口口口
③口口③
口④⑤口 |③---|
③口口③ |④-⑤-|
26
口口口口 |--①-|
③⑥口口 |②-③-|
②⑤口口 |④---|
①口④④ |⑤-⑥-|
27
口口口口 |①---|
口③③③ |②---|
①口①口 |③---|
口②口② |----|
28
口口口口 |--①-|
口口⑥③ |②-③-|
口口⑤② |④---|
④④口① |⑤-⑥-|
29
①口①口 |①---|
口口口口 |②---|
口②口②
口口口口

④④④④
口③口③
口口口口 |③---|
口口口口 |④---|
30
口口口口 |①---|
②②②② |②---|
口④口口 |③---|
口①③④ |④---|
31
口口口口 |--①-|
口口口口 |----|
口口①口 |----|
①口口② |--②-|
32
口口口口 |①---|
①口⑤② |②---|
②④口① |③---|
口③③口 |④-⑤-|
33
①口①口 |①---|
口口口口 |②---|
②口②口
口口口口

口口口口
③口口③
口④⑤口 |③---|
③口口③ |④-⑤-|
34
口口口口 |--①-|
③⑥口口 |②-③-|
②⑤口口 |④---|
①口④④ |⑤-⑥-|
35
口口口口 |①---|
口③③③ |②---|
①口①口 |③---|
口②口② |----|
36
口口口口 |--①-|
口口⑥① |②-③-|
口口⑤② |④---|
④④口③ |⑤-⑥-|
37
①口①口 |①---|
口口口口 |②---|
口②口②
口口口口

④④④④
口③口③
口口口口 |③---|
口口口口 |④---|
38
口口口口 |①---|
②②②② |②---|
口④口口 |③---|
口①③④ |④---|
39
②②②② |--①-|
口口口口 |----|
口口①口 |----|
①口口口 |②---|
40
口口口口 |①---|
②②②② |②---|
口④口口 |③---|
口①③④ |④---|
41
②②②② |--①-|
口口口① |----|
①口口口 |----|
口口口口 |②---|
42
口口口口 |①---|
②②②② |②---|
口④口口 |③---|
口①③④ |④---|
43
口口口口 |--①-|
口口口口 |----|
口口①口 |----|
①口口口 |----|
44
口口口口 |①---|
口口口口 |----|
口①①口 |----|
口口口口 |----|
45
口⑤口口 |--①-|
①口④② |--②-|
口③口口 |--③-|
口口口口 |④-⑤-|
46
④口口⑤ |①-②-|
④⑥口③ |③-④-|
②口⑦① |⑤-⑥-|
②⑧口口 |⑦-⑧-|
47
④口口⑤ |①-②-|
④⑥口③ |③-④-|
②口⑦① |⑤-⑥-|
②⑧口口 |⑦-⑧-|
48
④口口⑤ |①-②-|
④⑥口③ |③-④-|
②口⑦① |⑤-⑥-|
②⑧口口 |⑦-⑧-|
49
④口口⑤ |①-②-|
④⑥口③ |③-④-|
②口⑦① |⑤-⑥-|
②⑧口口 |⑦-⑧-|
50
①口⑥口 |①-②-|
⑤⑦②口 |③-④-|
口③⑧口 |⑤-⑥-|
口口④口 |⑦-⑧-|
51
口口口口 |①-②-|
⑤口②⑤ |③-④-|
口③口口 |⑤---|
①口④口 |----|


不確定度: 0

最終更新:2013年05月28日 15:11