アットウィキロゴ

虚空と光明のディスクール
日向美ビタースイーツ♪

ADVANCED

Level: 6
BPM: 140
Notes: 310

1
口口口口 |----|
口口口口 |----|
口口口口 |----|
口口口口 |----|
2
①②①口 |①---|
③④③口 |②---|
口口口口 |③---|
口口口口 |④---|
3
口口口口 |①---|
口口口口 |②---|
口①②① |③---|
口③④③ |④---|
4
①②①口 |①---|
③④③口 |②---|
口口口口 |③---|
口口口口 |④---|
5
口口口口 |①---|
口口口口 |②---|
口①②① |③---|
口③④③ |④---|
6
②④口口 |①---|
①③口口 |②---|
②④口口 |③---|
口口口口 |④---|
7
口口口口 |①---|
口口②④ |②---|
口口①③ |③---|
口口②④ |④---|
8
②④口口 |①---|
①③口口 |②---|
②④口口 |③---|
口口口口 |④---|
9
口口口口 |①---|
口口②④ |②---|
口口①③ |③---|
口口②④ |④---|
10
①口口① |①---|
口口口口 |----|
口口口口 |----|
口口口口 |----|
11
口口口口 |----|
口口口口 |----|
口①口② |①---|
口口口口 |②---|
12
口口口口 |①---|
口口①口 |----|
口口口口 |----|
口口口口 |----|
13
口口口口 |①---|
①口②口 |----|
口口口口 |②---|
口口口口 |----|
14
口口口口 |①---|
口口口口 |----|
口②口口 |----|
口①口口 |②---|
15
口口口口 |①---|
口口②口 |--②-|
口口口① |----|
口③口口 |③---|
16
口口口口 |①---|
口口口口 |----|
①口口口 |----|
口口口口 |----|
17
口口口口 |----|
口口口口 |----|
口①口口 |①---|
口口口口 |----|
18
口口口口 |①---|
口口①口 |----|
口口口口 |----|
口口口口 |----|
19
口口口口 |----|
口口口口 |----|
①①口② |①-②-|
口口③③ |③---|
20
⑤②口口 |①---|
口口①① |②---|
口口③④ |③-④-|
口口⑤⑥ |⑤-⑥-|
21
口口口口 |----|
口口口口 |----|
口口口口 |----|
口口口口 |----|
22
④②⑤⑤ |①---|
口口①① |②---|
口口③③ |③---|
口口口口 |④-⑤-|
23
口口口口 |----|
口②口口 |--①-|
口口②② |----|
口口①① |②---|
24
①口①口 |①---|
口口⑤② |②---|
③④口口 |③-④-|
⑤⑥口口 |⑤-⑥-|
25
口口口② |--①-|
口②口口 |②---|
口口①口 |----|
口口口口 |----|
26
口口口口 |①---|
口①口口 |②---|
口口②口
口口口口

口口⑥口
口⑤口③
④口口⑤ |③-④-|
口口口口 |⑤-⑥-|
27
口口口口 |----|
①②②① |--①-|
口③③口 |----|
口口口口 |②-③-|
28
口口口口 |----|
口口口口 |----|
口口口口 |----|
口口口口 |----|
29
②口口口 |①---|
②口口口 |②---|
口口口口
口①①①

口口口口
⑥④③⑥
口口⑤口 |③-④-|
口口口口 |⑤-⑥-|
30
口口口口 |--①-|
口口口口 |②---|
口口口口
口①②口

口④口口
③口③口
口口口口 |③-④-|
口⑤口⑤ |--⑤-|
31
口口口口 |----|
口口口① |----|
口口口口 |----|
口口口口 |--①-|
32
口口口口 |①-②-|
口口②口 |--③-|
③口①口
口口口口

口口⑥口
口⑤口口
口口④口 |--④-|
口口口口 |⑤-⑥-|
33
口口口② |①---|
口口口② |②---|
口口口口
①①①口

口口口口
⑥③④⑥
口⑤口口 |③-④-|
口口口口 |⑤-⑥-|
34
口口口口 |--①-|
口口口口 |②---|
口口口口
口①②口

口口④口
口③口③
口口口口 |③-④-|
⑤口⑤口 |--⑤-|
35
口口口口 |----|
口①口口 |----|
口口①口 |----|
口口口口 |①---|
36
④口口④ |①-②-|
②口③① |--③-|
①③口② |--④-|
口口口口 |----|
37
②口口口 |①---|
②口口口 |②---|
口口口口
口①①①

口口口口
⑥④③⑥
口口⑤口 |③-④-|
口口口口 |⑤-⑥-|
38
口口口口 |--①-|
口口口口 |②---|
口口口口
口①②口

口④口口
③口③口
口口口口 |③-④-|
口⑤口⑤ |--⑤-|
39
口口口口 |----|
口口口① |----|
口口口口 |----|
口口口口 |--①-|
40
③口口口 |①-②-|
口口口口 |--③-|
口②①口
口口口口

口口口口
口口口口
⑤口④口 |--④-|
口口口口 |--⑤-|
41
口③口② |①---|
口口口② |②-③-|
口口口口
①①①口

⑤口口⑤
口⑤⑤口
④口口④ |----|
口口口口 |④-⑤-|
42
口口口口 |----|
口口口口 |----|
口口口口 |----|
口口口口 |----|
43
②口①② |①---|
口口口口 |--②-|
③④④③ |----|
④口口④ |③-④-|
44
口口口口 |----|
口①口口 |----|
口口②口 |--①-|
口口口③ |②-③-|
45
口口口口 |----|
口口口口 |----|
口口口口 |----|
口口口口 |----|
46
口口①口 |----|
口②口口 |----|
③口口口 |--①-|
口口口口 |②-③-|
47
口口口口 |----|
口口口口 |----|
口口口口 |----|
口口口口 |----|
48
口口口① |----|
口口②口 |----|
口③口口 |--①-|
口口口口 |②-③-|
49
口口口口 |----|
口口口口 |----|
口口口口 |----|
口口口口 |----|
50
①口口口 |----|
口②口口 |----|
口口③口 |--①-|
口口口口 |②-③-|
51
口口口口 |----|
口口口口 |----|
口口口口 |----|
口口口口 |----|
52
口①口口 |----|
②口口口 |----|
口③口口 |--①-|
口口口口 |②-③-|
53
口口口口 |----|
口口①口 |----|
口口口② |--①-|
口口③口 |②-③-|
54
①口口口 |--①-|
口②口④ |②-③-|
③口⑤口 |--④-|
口口口⑥ |⑤-⑥-|
55
口口口口 |----|
口口口口 |----|
口口口② |--①-|
口口③① |②-③-|
56
①②⑤④ |--①-|
③口口⑥ |②-③-|
口口口口 |--④-|
口口口口 |⑤-⑥-|
57
口①口口 |----|
口②口口 |----|
口③口口 |--①-|
口口口口 |②-③-|
58
④口口口 |--①-|
⑤口③口 |②-③-|
⑥口②口 |--④-|
口口①口 |⑤-⑥-|
59
口口口① |----|
口口口② |----|
口口口③ |--①-|
口口口口 |②-③-|
60
口口口口 |--①-|
③口口口 |②-③-|
②口口口 |----|
①口口口 |----|
61
①②①口 |①---|
③④③口 |②---|
口口口口 |③---|
⑤口口⑤ |④-⑤-|
62
口口口口 |----|
口口口口 |①---|
口口①口 |②---|
口②③② |③---|
63
①②①口 |①---|
③④③口 |②---|
口口口口 |③---|
⑤口口⑤ |④-⑤-|
64
口口口口 |----|
口口口口 |①---|
口口①口 |②---|
口②③② |③---|
65
②口口口 |①---|
①口口口 |②---|
②口口口
口口口口

口④口口
⑤③口⑤
口④口口 |③---|
口口口口 |④-⑤-|
66
口口口口 |----|
口口①③ |①---|
口口口② |②---|
口口①③ |③---|
67
②口口口 |①---|
①口口口 |②---|
②口口口
口口口口

口④口口
⑤③口⑤
口④口口 |③---|
口口口口 |④-⑤-|
68
口口口口 |----|
口口①③ |①---|
口口口② |②---|
口口①③ |③---|
69
口口口口 |①---|
口①①口 |----|
口①①口 |----|
口口口口 |----|


不確定度: 0

最終更新:2013年12月15日 00:55