アットウィキロゴ

キミ記念日~生まれて来てくれてアリガトウ。~
ソナーポケット

BASIC

Level: 2
BPM: 127
Notes: 174

1
口口口口 |----|
口口口口 |----|
口口口口 |----|
口口口口 |----|
2
口口口口 |----|
口口口口 |----|
口口口口 |----|
口口口口 |----|
3
口口口口 |①---|
口口口口 |----|
口①①口 |----|
口口口口 |----|
4
口口口口 |①---|
口①①口 |----|
口口口口 |----|
口口口口 |----|
5
口口口口 |①---|
口口口口 |----|
口①①口 |----|
口口口口 |----|
6
口口口口 |①---|
口①①口 |----|
口口口口 |----|
口口口口 |----|
7
口口口口 |①---|
口口口口 |----|
①①口口 |----|
口口口口 |----|
8
口口口口 |①---|
口口口口 |----|
口口①① |----|
口口口口 |----|
9
口口口口 |①---|
口口口口 |----|
口②②口 |②---|
口①①口 |----|
10
②口口② |①---|
①口口① |②---|
口口口口 |----|
口口口口 |----|
11
口口口口 |①---|
口口口口 |----|
口①②口 |②---|
口口口口 |----|
12
口口口口 |①---|
口口口口 |----|
口口口口 |②---|
口①②口 |----|
13
口口口口 |①---|
口口口口 |----|
口①②口 |②---|
口口口口 |----|
14
口口口口 |①---|
口口口口 |----|
口口口口 |②---|
口①②口 |----|
15
口口口口 |①---|
口②口口 |----|
口①口口 |②---|
口口口口 |----|
16
口口②口 |①---|
口口①口 |----|
口口口口 |②---|
口口口口 |----|
17
口口口口 |①---|
口①①口 |----|
口口口口 |----|
口口口口 |----|
18
口口口口 |①---|
口口口口 |----|
口①①口 |----|
口口口口 |----|
19
口口口口 |①---|
①口口① |----|
口口口口 |----|
口口口口 |----|
20
口口口口 |①---|
口口口口 |----|
①口口① |----|
口口口口 |----|
21
口口口口 |①---|
口口口口 |----|
①①口口 |----|
口口口口 |----|
22
口口口口 |①---|
口口口口 |----|
口口①① |----|
口口口口 |----|
23
口口口口 |①---|
①①口口 |----|
口口口口 |----|
口口口口 |----|
24
口口口口 |①---|
口口①① |----|
口口口口 |----|
口口口口 |----|
25
口口口口 |①---|
口②口口 |----|
口①①口 |②---|
口口口口 |----|
26
口口口口 |①---|
口口②口 |----|
口①①口 |②---|
口口口口 |----|
27
口口口口 |①---|
口②口口 |----|
口①①口 |②---|
口口口口 |----|
28
口口口口 |①---|
口口②口 |----|
口①①口 |②---|
口口口口 |----|
29
口口口口 |①---|
口②口口 |----|
①①口口 |②---|
口口口口 |----|
30
口口口口 |①---|
口口②口 |----|
口口①① |②---|
口口口口 |----|
31
口口口口 |①---|
①口口① |----|
②口口② |②---|
口口口口 |----|
32
口口口口 |①---|
口①①口 |----|
口②②口 |②---|
口口口口 |----|
33
口口口口 |①---|
①②③④ |②---|
口口口口 |③---|
口口口口 |④---|
34
口口口口 |①---|
口口口口 |②---|
④③②① |③---|
口口口口 |④---|
35
口口口口 |①---|
①②③④ |②---|
口口口口 |③---|
口口口口 |④---|
36
口口口口 |①---|
口口口口 |②---|
④③②① |③---|
口口口口 |④---|
37
口②②口 |①---|
口①①口 |----|
口口口口 |②---|
口口口口 |----|
38
②口口② |①---|
①口口① |----|
口口口口 |②---|
口口口口 |----|
39
口口口口 |①---|
③口口③ |----|
②①①② |②---|
口口口口 |③---|
40
①口口① |①---|
口口口口 |----|
口②③口 |②---|
口口口口 |③---|
41
口①①口 |①---|
口②②口 |----|
口口口口 |②---|
口口口口 |----|
42
口口口口 |①---|
①②③④ |②---|
口口口口 |③---|
口口口口 |④---|
43
口口口口 |①---|
口口口口 |----|
②①①② |②---|
口口口口 |----|
44
口口口口 |①---|
口①②口 |②---|
口③③口 |③---|
口口口口 |----|
45
口口口口 |①---|
口③④口 |②---|
口②口口 |③---|
口①口口 |④---|
46
口口口口 |①---|
口④③口 |②---|
口口②口 |③---|
口口①口 |④---|
47
口口口口 |①---|
③④口口 |②---|
②①口口 |③---|
口口口口 |④---|
48
口口口口 |①---|
口口③④ |②---|
口①②口 |③---|
口口口口 |④---|
49
口口口口 |①---|
口口口口 |----|
②①①② |②---|
口口口口 |----|
50
口口口口 |①---|
口①②口 |②---|
口③④口 |③---|
口口口口 |④---|
51
口口口口 |①---|
②①①② |----|
口口口口 |②---|
口口口口 |----|
52
口口口口 |①---|
口①②口 |②---|
口③④口 |③---|
口口口口 |④---|
53
口口口口 |①---|
口②②口 |----|
口口口口 |②---|
口①①口 |----|
54
口口口口 |①---|
②口口② |----|
①口口① |②---|
口口口口 |----|
55
口①②口 |①---|
口③④口 |②---|
口口口口 |③---|
口口口口 |④---|
56
口口口口 |①---|
口口口口 |②---|
口①②口 |③---|
口③④口 |④---|
57
口口口口 |①---|
口口口口 |----|
口①①口 |----|
口口口口 |----|


不確定度: 0

最終更新:2013年08月01日 14:58