アットウィキロゴ

Fly with me
TAG

ADVANCED

Level: 8
BPM: 177
Notes: 621

1
口口口口 |------|
口口口口 |------|
口口口口 |------|
口口口口 |------|
2
口口口口 |①-----|
①②口① |------|
①口②① |------|
口口口口 |----②-|
3
口口①① |①-----|
口口②口 |------|
口②口口 |------|
①①口口 |----②-|
4
①①口口 |①-----|
口②口口 |------|
口口②口 |------|
口口①① |----②-|
5
②②①① |①-----|
口口口口 |------|
口口口口 |②-----|
①①②② |------|
6
口口口口 |①-----|
①②口① |------|
①口②① |------|
口口口口 |----②-|
7
口口①① |①-----|
口口②口 |------|
口②口口 |------|
①①口口 |----②-|
8
①①口口 |①-----|
口②口口 |------|
口口②口 |------|
口口①① |----②-|
9
口口①① |①-----|
②口口② |------|
②口口② |②-----|
①①口口 |------|
10
口口②② |①-----|
③④⑤口 |②-----|
③⑥口口 |③-----|
口口①① |④-⑤-⑥-|
11
口口②② |①-----|
③④⑤口 |②-----|
③⑥口口 |③-----|
口口①① |④-⑤-⑥-|
12
口口②② |①-----|
③④⑤口 |②-----|
③⑥口口 |③-----|
口口①① |④-⑤-⑥-|
13
口口②② |①-----|
③⑤⑥口 |②-----|
③口④口 |③-----|
口口①① |④-⑤-⑥-|
14
②②口口 |①-----|
口⑤④③ |②-----|
口口⑥③ |③-----|
①①口口 |④-⑤-⑥-|
15
②②口口 |①-----|
口⑤④③ |②-----|
口口⑥③ |③-----|
①①口口 |④-⑤-⑥-|
16
②②口口 |①-----|
口⑤④③ |②-----|
口口⑥③ |③-----|
①①口口 |④-⑤-⑥-|
17
②②口口 |①-----|
口⑥口③ |②-----|
口④⑤③ |③-----|
①①口口 |④-⑤-⑥-|
18
④②①③ |①-②-③-|
⑥口口⑤ |④-⑤-⑥-|
⑧口口⑦ |⑦-⑧-⑨-|
⑩⑫⑪⑨ |⑩-⑪-⑫-|
19
口口⑤⑤ |①---②-|
④②①③ |--③---|
④②①③ |④---⑤-|
⑥⑥口口 |--⑥---|
20
口⑤⑦⑦ |①---②-|
口③④⑥ |③---④-|
口口②⑥ |⑤---⑥-|
口口①① |----⑦-|
21
②②口口 |----①-|
口⑤④口 |----②-|
口③口口 |----③-|
①①口口 |④---⑤-|
22
口口①口 |①-----|
②口口③ |②---③-|
②口④③ |------|
口口口口 |----④-|
23
③③②② |①---②-|
口①口口 |----③-|
口口口口
口口口口

口口口口
口⑥⑤口
口④口口 |----④-|
口口口口 |⑤---⑥-|
24
口口①① |①-----|
②口口③ |②---③-|
②口④③ |------|
口口口口 |----④-|
25
口口口口 |①-----|
②①口② |----②-|
②口口②
口口口口

口口口口
口⑤④口
口③口口 |----③-|
口口口口 |④---⑤-|
26
②②①④ |①-----|
口口口④ |②-----|
口口口口 |③-----|
口口③③ |④-----|
27
口口口口 |①---②-|
口③口口 |③---④-|
①口②口 |------|
①口④④ |------|
28
⑦⑦⑤口 |①---②-|
⑥④③口 |③---④-|
⑥②口口 |⑤---⑥-|
①①口口 |----⑦-|
29
口口②② |----①-|
口④⑤口 |----②-|
口口③口 |----③-|
口口①① |④---⑤-|
30
口①口口 |①-----|
③口口② |②---③-|
③④口② |------|
口口口口 |----④-|
31
②②③③ |①---②-|
口口①口 |----③-|
口口口口
口口口口

口口口口
口⑤⑥口
口口④口 |----④-|
口口口口 |⑤---⑥-|
32
①①口口 |①-----|
③口口② |②---③-|
③④口② |------|
口口口口 |----④-|
33
口口口口 |①-----|
②口①② |----②-|
②口口②
口口口口

口口口口
口④⑤口
口口③口 |----③-|
口口口口 |④---⑤-|
34
口①口口 |①-----|
④口口④ |------|
③口口③ |②---③-|
②口口② |--④---|
35
①口口① |①-----|
口②②口 |②---③-|
口③③口 |------|
口口口口 |------|
36
口⑤①① |①-----|
口③④口 |----②-|
口口②口 |③---④-|
①①⑥⑥ |⑤---⑥-|
37
③③口口 |------|
口④②口 |----①-|
口①口口 |②---③-|
口口口口 |----④-|
38
④④口口 |①-----|
②口口③ |------|
②口①③ |②---③-|
口口口口 |--④---|
39
口口①① |①-----|
口口⑤口 |②---③-|
口④④口 |----④-|
②②③③ |----⑤-|
40
①①口口 |①-----|
③⑤口② |②---③-|
③口口② |----④-|
口口④④ |----⑤-|
41
口口①① |①-----|
②口⑤③ |②---③-|
②口口③ |----④-|
④④口口 |----⑤-|
42
①①④④ |①-----|
③口口口 |②---③-|
③口口口 |------|
口口②② |④-----|
43
口口口口 |①-----|
④③②① |②-----|
④③②① |③-----|
口口口口 |④-----|
44
口②②口 |①-----|
口口口口 |②---③-|
口③③口 |------|
口①①口 |------|
45
口口口口 |------|
口口口口 |------|
口口口口 |------|
口口口口 |------|
46
口口口口 |------|
口口口口 |------|
口口口口 |------|
口口口口 |------|
47
口③口口 |------|
口口口口 |------|
口④②口 |①---②-|
①口口① |③---④-|
48
③⑥①口 |①---②-|
口口口口 |③---④-|
口⑦⑤② |----⑤-|
口④④口 |⑥---⑦-|
49
④口①口 |①---②-|
口⑤⑤口 |----③-|
⑥口口③ |④---⑤-|
②口口② |----⑥-|
50
口口口① |①-----|
③④④③ |②---③-|
口口⑤口 |----④-|
口②②口 |----⑤-|
51
③①口③ |①-----|
口④④口 |②---③-|
②⑤口② |------|
口口口口 |④---⑤-|
52
口⑤①口 |①---②-|
口口口口 |----③-|
口⑥④口 |----④-|
③②②③ |⑤---⑥-|
53
②口①③ |①-----|
②口口③ |②-----|
④口口口 |③-----|
④口口口 |④-----|
54
口③③口 |①-----|
口口口口 |②---③-|
口口口①
口②②①

口口口口
口口口口
口④④口 |------|
⑤口口⑤ |④---⑤-|
55
③口口③ |①---②-|
①口口① |----③-|
口口口口 |------|
口②②口 |------|
56
⑥③口口 |①---②-|
①口口① |③---④-|
⑦口②⑤ |----⑤-|
④口口④ |⑥---⑦-|
57
口④口① |①---②-|
口⑤⑤口 |----③-|
口⑥③口 |④---⑤-|
口②②口 |----⑥-|
58
⑤口①口 |①-----|
③口口③ |②---③-|
⑥口口④ |----④-|
口②②口 |⑤---⑥-|
59
口③③① |①-----|
口口口口 |②---③-|
口口口口 |------|
口②②口 |------|
60
口口口口 |①-----|
①口口① |----②-|
①口②①
口口口口

口③⑤口
⑥口口⑥
口④口口 |③---④-|
口口口口 |⑤---⑥-|
61
口口口口 |------|
口③③口 |①-----|
口②②口 |②-----|
口①①口 |③-----|
62
①④④① |①-----|
③口口③ |②---③-|
口口口口 |------|
口②②口 |④-----|
63
①口口① |①-----|
②口口② |②-----|
口③③口 |③---④-|
④口口④ |------|
64
⑤口口口 |①-----|
③口口④ |----②-|
口⑥⑥② |③---④-|
口①①口 |⑤---⑥-|
65
口③③口 |------|
口口口② |----①-|
①口口口 |②-----|
口口口口 |③-----|
66
④口口④ |①-----|
③口口③ |------|
②口口② |②---③-|
口①①口 |--④---|
67
口④④口 |①-----|
口口口口 |②-----|
③②②③ |③---④-|
①口口① |------|
68
①口口① |①---②-|
③口口⑥ |③---④-|
口⑤②口 |----⑤-|
④⑦④⑦ |⑥---⑦-|
69
口②口口 |----①-|
③口口④ |②---③-|
③⑤①④ |----④-|
口口口口 |----⑤-|
70
③口①③ |①-----|
口②②口 |②---③-|
口口口口 |------|
口口口口 |------|
71
口口口口 |------|
口口口口 |------|
口口口口 |------|
口口口口 |------|
72
口口②② |①-----|
③④⑤口 |②-----|
③⑥口口 |③-----|
口口①① |④-⑤-⑥-|
73
口口②② |①-----|
③④⑤口 |②-----|
③⑥口口 |③-----|
口口①① |④-⑤-⑥-|
74
口口②② |①-----|
③④⑤口 |②-----|
③⑥口口 |③-----|
口口①① |④-⑤-⑥-|
75
口口②② |①-----|
③⑤⑥口 |②-----|
③口④口 |③-----|
口口①① |④-⑤-⑥-|
76
②②口口 |①-----|
口⑤④③ |②-----|
口口⑥③ |③-----|
①①口口 |④-⑤-⑥-|
77
②②口口 |①-----|
口⑤④③ |②-----|
口口⑥③ |③-----|
①①口口 |④-⑤-⑥-|
78
②②口口 |①-----|
口⑤④③ |②-----|
口口⑥③ |③-----|
①①口口 |④-⑤-⑥-|
79
②②口口 |①-----|
口⑥口③ |②-----|
口④⑤③ |③-----|
①①口口 |④-⑤-⑥-|
80
④④②② |①-----|
口口口口 |②-----|
口口口口 |③-----|
③③①① |④-----|
81
口口口口 |①-----|
②④③① |②-----|
②④③① |③-----|
口口口口 |④-----|
82
口④②口 |①-----|
④口口② |②-----|
③口口① |③-----|
口③①口 |④-----|
83
④口口② |①-----|
口①③口 |②-----|
口②④口 |③-----|
③口口① |④-----|


不確定度: 0

最終更新:2013年10月24日 23:05