アットウィキロゴ

New Gravity
Starving Trancer

BASIC

Level: 3
BPM: 154
Notes: 247

1
口口口口 |----|
口口口口 |----|
口口口口 |----|
口口口口 |----|
2
口口口口 |①---|
①②口口 |----|
口口口口 |②---|
口口口口 |----|
3
口口口口 |①---|
口口口口 |----|
口①②口 |②---|
口口口口 |----|
4
口口口口 |①---|
①②口口 |----|
口口口口 |②---|
口口口口 |----|
5
口口口口 |①---|
口口口口 |----|
口①②口 |②---|
口口口口 |----|
6
口口口口 |①---|
①②口口 |----|
口口口口 |②---|
口口口口 |----|
7
口口口口 |①---|
口口口口 |----|
口①②口 |②---|
口口口口 |----|
8
口口口口 |①---|
口口口口 |----|
口口②① |②---|
口口口口 |----|
9
口口口口 |①---|
口①①口 |----|
口②②口 |②---|
口口口口 |----|
10
口口口口 |①---|
口口口口 |----|
口口口口 |----|
口①①口 |----|
11
口口口口 |①---|
口②②口 |----|
①口口① |②---|
口口口口 |----|
12
口口口口 |①---|
①②口口 |----|
口口口口 |②---|
口口口口 |----|
13
口口口口 |①---|
口口①口 |----|
口②②口 |②---|
口口口口 |----|
14
口口口口 |①---|
口①②口 |----|
口口口口 |②---|
口口口口 |----|
15
口口口口 |①---|
口口口① |----|
口②②口 |②---|
口口口口 |----|
16
口口口口 |①---|
①②口口 |----|
口口口口 |②---|
口口口口 |----|
17
口口口口 |①---|
口口①口 |----|
口②②口 |②---|
口口口口 |----|
18
口口口口 |①---|
②口口② |----|
①口口① |②---|
口口口口 |----|
19
口口口口 |①---|
口①①口 |----|
口②②口 |②---|
口口口口 |----|
20
口①口口 |①---|
口②口口 |----|
口口口口 |②---|
口口口口 |----|
21
口口口口 |①---|
口口口口 |----|
口口①口 |②---|
口口②口 |----|
22
口口口口 |①---|
口口口口 |----|
口②口口 |②---|
口①口口 |----|
23
口口②口 |①---|
口口①口 |----|
口口口口 |②---|
口口口口 |----|
24
口①口口 |①---|
口②口口 |----|
口口口口 |②---|
口口口口 |----|
25
口口口口 |①---|
口口口口 |----|
口口①口 |②---|
口口②口 |----|
26
口口口口 |①---|
②口口② |----|
①口口① |②---|
口口口口 |----|
27
口口口口 |----|
口口口口 |----|
口口口口 |----|
口口口口 |----|
28
口口口口 |①---|
口④④口 |②---|
口①②③ |③---|
口口口口 |④---|
29
口口口口 |①---|
口④④口 |②---|
①②③口 |③---|
口口口口 |④---|
30
口①②③ |①---|
口④④口 |②---|
口口口口 |③---|
口口口口 |④---|
31
①②③口 |①---|
口④④口 |②---|
口口口口 |③---|
口口口口 |④---|
32
①口口口 |①---|
②口口口 |②---|
③口口口 |③---|
④④口口 |④---|
33
口①口口 |①---|
口②口口 |②---|
口③口口 |③---|
④④口口 |④---|
34
口口①口 |①---|
口口②口 |②---|
口口③口 |③---|
口口④④ |④---|
35
口口口① |①---|
口口口② |②---|
口口口③ |③---|
口口④④ |④---|
36
口口口口 |①---|
①③口口 |②---|
口口②④ |③---|
口口口口 |④---|
37
口口口口 |①---|
①②③④ |②---|
口口口口 |③---|
口口口口 |④---|
38
口口口口 |①---|
口口口口 |----|
①②②① |②---|
口口口口 |----|
39
口口口口 |①---|
①②③④ |②---|
口口口口 |③---|
口口口口 |④---|
40
口口口口 |①---|
口口口口 |----|
①②②① |②---|
口口口口 |----|
41
口口口口 |①---|
①②③④ |②---|
口口口口 |③---|
口口口口 |④---|
42
口口口口 |①---|
口口口口 |----|
①②②① |②---|
口口口口 |----|
43
口口口口 |①---|
②口口② |----|
①口口① |②---|
口口口口 |----|
44
口口口口 |①---|
口口口口 |②---|
②②④④ |③---|
①①③③ |④---|
45
口口口口 |①---|
①口口① |----|
口口口口 |----|
口口口口 |----|
46
口口口口 |①---|
①③口口 |②---|
②④口口 |③---|
口口口口 |④---|
47
口口口口 |①---|
口口①③ |②---|
口口②④ |③---|
口口口口 |④---|
48
口口口口 |①---|
①③口口 |②---|
口口口口 |③---|
②④口口 |④---|
49
口口口口 |①---|
口口①③ |②---|
口口口口 |③---|
口口②④ |④---|
50
①①口口 |①---|
口口口② |②---|
③③口口 |③---|
口口口④ |④---|
51
口口②口 |①---|
①①口口 |②---|
口口④口 |③---|
③③口口 |④---|
52
①②③④ |①-②-|
⑤⑥⑦⑧ |③-④-|
口口口口 |⑤-⑥-|
口口口口 |⑦-⑧-|
53
口口口口 |①-②-|
口口口口 |③-④-|
①②③④ |⑤-⑥-|
⑤⑥⑦⑧ |⑦-⑧-|
54
口口口口 |①---|
①口③口 |②---|
②②④④ |③---|
口口口口 |④---|
55
口口口口 |①---|
口口口口 |②---|
③口④③ |③---|
①②口① |④---|
56
口口口口 |①---|
①口③口 |②---|
②②④④ |③---|
口口口口 |④---|
57
口口口口 |①---|
口口口口 |②---|
③口④③ |③---|
①②口① |④---|
58
口口口口 |①---|
①口③口 |②---|
②②④④ |③---|
口口口口 |④---|
59
口口口口 |①---|
口口口口 |②---|
③口④③ |③---|
①②口① |④---|
60
口口口口 |①---|
②口口② |----|
口口口口 |②---|
口①①口 |----|
61
口口口口 |①---|
口口口口 |②---|
②②④④ |③---|
①①③③ |④---|
62
口口口口 |①---|
①口口① |----|
口口口口 |----|
口口口口 |----|
63
口口口口 |①---|
口①②口 |----|
口口口口 |②---|
口口口口 |----|
64
口口口口 |①---|
口口口① |----|
口口②口 |②---|
口口口口 |----|
65
口口口口 |①---|
口口口口 |----|
②①口口 |②---|
口口口口 |----|
66
口口口口 |①---|
口口口口 |----|
口①①口 |----|
口口口口 |----|


不確定度: 0

最終更新:2013年10月24日 23:08