アットウィキロゴ

回レ!雪月花
歌組雪月花

EXTREME

Level: 9
BPM: 160
Notes: 638

1
口口口口 |----|
口口口口 |----|
口口口口 |----|
口口口口 |----|
2
口②②口 |①---|
口口口口 |②---|
口口口口
口①①口

③口口④
口⑥口④
口口⑤口 |③-④-|
⑥⑤口⑤ |⑤-⑥-|
3
③④⑤口 |①-②-|
⑥口①⑦ |③④⑤-|
②⑥口① |⑥-⑦-|
口⑩⑨⑧ |⑧⑨⑩-|
4
③④⑤口 |①-②-|
⑥⑩①⑦ |③④⑤-|
②⑥口① |⑥-⑦-|
口口⑨⑧ |⑧⑨⑩-|
5
③④⑤口 |①-②-|
⑥口①⑦ |③④⑤-|
②⑥口① |⑥-⑦-|
口⑩⑨⑧ |⑧⑨⑩-|
6
口口④④ |①---|
口①②口 |②---|
③②①③ |③---|
口口④④ |④---|
7
②④⑥⑧ |①-②-|
④②⑧⑥ |③-④-|
口口口口 |⑤-⑥-|
①③⑤⑦ |⑦-⑧-|
8
②④⑥⑧ |①-②-|
④②口⑥ |③-④-|
口口⑦⑧ |⑤-⑥-|
①③⑤⑦ |⑦-⑧-|
9
②④⑥⑧ |①-②-|
④②⑧⑥ |③-④-|
口口口口 |⑤-⑥-|
①③⑤⑦ |⑦-⑧-|
10
②④口⑤ |①-②-|
④②⑤⑥ |③-④-|
口口⑥⑦ |--⑤-|
①③⑦口 |⑥-⑦-|
11
口口①⑤ |--①②|
②⑥口口 |③④⑤⑥|
口④口口
口口口③

口⑩⑬口
口口口⑨
⑫口⑦口 |⑦⑧⑨⑩|
⑧⑭⑪口 |⑪⑫⑬⑭|
12
②口⑩⑤ |①②③④|
⑥⑪⑦⑩ |⑤⑥⑦⑧|
⑫④⑪① |⑨-⑩-|
⑧⑫⑨③ |⑪-⑫-|
13
⑩⑭⑦③ |--①②|
④⑧口⑪ |③④⑤⑥|
口②⑬⑤ |⑦⑧⑨⑩|
⑥⑫⑨① |⑪⑫⑬⑭|
14
口口⑦⑤ |①②③④|
口口③口 |⑤⑥⑦-|
④②口口
⑥口口①

口⑨口口
⑨口⑩口
口⑩口⑧ |⑧--⑨|
口口⑧口 |--⑩-|
15
⑥④①⑤ |--①-|
④⑥⑤① |②-③-|
②口口③ |④-⑤-|
⑦②③⑦ |⑥-⑦-|
16
口口口⑦ |①②③④|
⑥口口⑤ |⑤⑥⑦-|
口②①口
口④③口

⑧⑧口口
口口口口
⑩⑫口⑨ |⑧-⑨-|
⑩口⑪⑨ |⑩-⑪⑫|
17
④口口③ |①--②|
②②①① |--③④|
口⑧⑦口 |⑤-⑥-|
⑥口口⑤ |⑦-⑧-|
18
口③①口 |①-②-|
③⑤⑤① |③---|
②⑤⑤④ |④---|
口②④口 |⑤---|
19
③②①③ |①--②|
②口口① |--③-|
⑧⑥⑤⑦ |④-⑤⑥|
口④④口 |⑦-⑧-|
20
②④⑥⑧ |①-②-|
④②⑧⑥ |③-④-|
口口口口 |⑤-⑥-|
①③⑤⑦ |⑦-⑧-|
21
②④⑥⑧ |①-②-|
④②口⑥ |③-④-|
口口⑦⑧ |⑤-⑥-|
①③⑤⑦ |⑦-⑧-|
22
②④⑥⑧ |①-②-|
④②⑧⑥ |③-④-|
口口口口 |⑤-⑥-|
①③⑤⑦ |⑦-⑧-|
23
口口③③ |①---|
②口口② |----|
口①①口 |②---|
口口③③ |③---|
24
口口口口 |①---|
口⑤④③ |②---|
①①口口 |----|
②②口口 |③④⑤-|
25
口口⑥口 |①---|
口口口⑤ |②---|
②②④口 |③-④-|
①①口③ |⑤-⑥-|
26
口口口口 |①---|
口⑤④③ |②---|
①①口口 |----|
②②口口 |③④⑤-|
27
②②口口 |①---|
④口口④ |----|
①口口① |②--③|
口口③③ |--④-|
28
⑫⑧①⑬ |--①②|
⑭口⑦⑪ |③④⑤⑥|
②⑩③⑤ |⑦⑧⑨⑩|
⑥④口⑨ |⑪⑫⑬⑭|
29
口⑧③口 |①②③④|
口⑥口口 |⑤⑥⑦⑧|
④口①⑦
口②⑤口

⑫口口口
⑯口⑨⑪
口口⑮口 |⑨⑩⑪⑫|
⑩⑭口⑬ |⑬⑭⑮⑯|
30
④⑤①① |①--②|
口口③③ |--③-|
②②口口 |④-⑤-|
口口⑦⑥ |⑥-⑦-|
31
③口口① |①---|
口③②口 |②---|
口②③口 |③---|
①④④③ |④---|
32
④⑥⑥④ |①--②|
②③③① |--③-|
②⑦⑦① |④-⑤-|
口⑤⑤口 |⑥-⑦-|
33
⑤口口口 |①---|
③口口口 |②---|
②口⑥⑤ |③-④-|
①口④① |⑤-⑥-|
34
④口③① |①---|
③口②① |②---|
②口④③ |③---|
①口④② |④---|
35
口口口① |①---|
口口口① |②---|
②口口口
①口口口

④口③口
③口③⑤
口口口⑥ |③---|
口口口口 |④-⑤⑥|
36
④口口口 |①---|
③口口口 |②---|
②口口口 |③---|
①口口① |④---|
37
口口口口 |①---|
口口③口 |②---|
口口②口 |③---|
①口④口 |④---|
38
口口①口 |①---|
口②⑤口 |②-③-|
口口③口 |④---|
口④口口 |⑤---|
39
口④①口 |①---|
④口口① |②---|
③口口② |③---|
口③②口 |④---|
40
②②口口 |①---|
口口口口 |----|
口①①口 |②---|
口口②② |----|
41
口口②① |①-②③|
口口①② |-④⑤-|
④③口⑤
③④⑤口

⑧⑦⑩⑨
⑦⑧⑨⑩
口⑪⑥口 |⑥⑦-⑧|
⑪口口⑥ |⑨-⑩⑪|
42
⑤④口口 |-①②-|
④⑤口口 |③④-⑤|
①口③②
口①②③

口口口⑥
口口⑥口
⑧⑦口⑧ |⑥--⑦|
⑦口口口 |--⑧-|
43
口②①⑥ |--①-|
口口③口 |②-③-|
口口口口 |④--⑤|
④④⑤⑤ |--⑥-|
44
①口口口 |①-②-|
③口口② |③-④-|
⑤口口④ |⑤---|
口口口口 |----|
45
口口②① |①-②③|
口口①② |-④⑤-|
④③口⑤
③④⑤口

⑧⑦⑩⑨
⑦⑧⑨⑩
口⑪⑥口 |⑥⑦-⑧|
⑪口口⑥ |⑨-⑩⑪|
46
⑤④口口 |-①②-|
④⑤口口 |③④-⑤|
①口③②
口①②③

口口口⑥
口口⑥口
⑧⑦口⑧ |⑥--⑦|
⑦口口口 |--⑧-|
47
口②①⑥ |--①-|
口口③口 |②-③-|
口口口口 |④--⑤|
④④⑤⑤ |--⑥-|
48
①口口口 |①-②-|
③口口② |③---|
⑤口口④ |④---|
口⑤④口 |⑤---|
49
①口口① |①---|
口口④口 |--②③|
口③⑥口 |④---|
口⑤②口 |--⑤⑥|
50
④口口口 |①-②-|
⑤①⑥口 |③-④-|
口⑦口② |⑤-⑥⑦|
⑨口⑧③ |⑧-⑨-|
51
⑤④③② |①-②-|
口口⑥口 |③-④-|
①⑦口① |⑤--⑥|
口口口口 |--⑦-|
52
③口口口 |①-②-|
②口口口 |③---|
①口口口
口口口口

口口口口
口口口口
⑤口口④ |④---|
口⑤④口 |⑤---|
53
②口口① |①②③④|
④口⑧③ |⑤-⑥⑦|
口⑦⑩⑤ |⑧---|
口⑨⑥口 |--⑨⑩|
54
④⑦⑦② |①-②-|
口①口口 |③-④-|
⑥口口⑤ |⑤--⑥|
口⑥⑤③ |--⑦-|
55
②口口① |--①-|
口⑥⑤口 |②-③-|
口⑤⑥口 |④--⑤|
④口口③ |--⑥-|
56
口①口④ |①---|
①口③口 |②---|
口③口② |③---|
口口②口 |④---|
57
②④⑥⑧ |①-②-|
④②⑧⑥ |③-④-|
口口口口 |⑤-⑥-|
①③⑤⑦ |⑦-⑧-|
58
②④⑥⑧ |①-②-|
④②口⑥ |③-④-|
口口⑦⑧ |⑤-⑥-|
①③⑤⑦ |⑦-⑧-|
59
②④⑥⑧ |①-②-|
④②⑧⑥ |③-④-|
口口口口 |⑤-⑥-|
①③⑤⑦ |⑦-⑧-|
60
口口③③ |①---|
②口口② |----|
口①①口 |②---|
口口③③ |③---|

不確定度: 0

最終更新:2014年08月01日 22:55