アットウィキロゴ

星屑のキロク
小野秀幸

EXTREME

Level: 9
BPM: 182
Notes: 632

1
口口口口 |----|
口口口口 |----|
口口口口 |----|
口口口口 |----|
2
口口口口 |①-②-|
口①④⑦ |③-④-|
口③②口 |--⑤-|
口⑥⑤口 |⑥-⑦-|
3
③口口② |①-②-|
①⑦④口 |③-④-|
口⑤⑥口 |⑤-⑥-|
口口口口 |⑦---|
4
⑤口口⑥ |①-②-|
③⑦口④ |③-④-|
口口⑧口 |⑤-⑥-|
口①②口 |⑦-⑧-|
5
口口口⑦ |①-②-|
⑥口②⑤ |--③-|
口①口口 |④-⑤-|
口④③口 |⑥-⑦-|
6
①口口口 |①-②-|
口⑤②口 |③-④-|
口③④口 |⑤---|
口⑥⑦口 |⑥-⑦-|
7
③口口④ |①-②-|
①⑤⑧② |③-④-|
口⑦⑥⑤ |⑤-⑥-|
口口口口 |⑦-⑧-|
8
⑥口④⑤ |--①-|
④口⑦③ |②-③-|
⑦口口口 |④-⑤-|
口②①口 |⑥-⑦-|
9
口口口口 |①-②-|
⑥③⑥⑦ |③---|
口①②口 |④-⑤-|
⑤④⑤口 |⑥-⑦-|
10
①口口② |①-②-|
口③⑥口 |③-④-|
口⑤④③ |⑤-⑥-|
口口⑦口 |--⑦-|
11
⑤口③④ |①-②-|
③口⑥② |③-④-|
⑥⑦⑧口 |⑤-⑥-|
口①口口 |⑦-⑧-|
12
⑥口口⑦ |①---|
④①④⑤ |②-③-|
口口口口 |④-⑤-|
③②③口 |⑥-⑦-|
13
口②③口 |①-②-|
⑥口⑦口 |③-④-|
④口⑤① |⑤-⑥-|
⑧口⑤① |⑦-⑧-|
14
口②口口 |①-②-|
⑥口⑦③ |③-④-|
④口⑤① |⑤-⑥-|
⑧口⑤① |⑦-⑧-|
15
口②口口 |①-②-|
⑥口⑦③ |③-④-|
④口⑤① |⑤-⑥-|
⑧口⑤① |⑦-⑧-|
16
口②⑦口 |①-②-|
口⑥口③ |③-④-|
④口⑤① |⑤-⑥-|
⑧口⑤① |⑦-⑧-|
17
②③口④ |①-②③|
⑧⑨口⑩ |④-⑤⑥|
⑤⑥⑦① |⑦-⑧⑨|
⑪⑫⑦① |⑩-⑪⑫|
18
②③口④ |①-②③|
⑧⑨口⑩ |④-⑤⑥|
⑤⑥⑦① |⑦-⑧⑨|
⑪⑫⑦① |⑩-⑪⑫|
19
②③口④ |①-②③|
⑧⑨口⑩ |④-⑤⑥|
⑤⑥⑦① |⑦-⑧⑨|
⑪⑫⑦① |⑩-⑪⑫|
20
②③口④ |①-②③|
口口口口 |④-⑤⑥|
⑤⑥口①
口口口①

口口口口
⑧⑨口⑩
口口⑦口 |⑦-⑧⑨|
口口⑦⑪ |⑩-⑪-|
21
口①①口 |①---|
口口口口 |----|
口口②口 |②---|
口口口口 |----|
22
①④口口 |①-②-|
口②口口 |--③-|
③⑤口口 |--④-|
口口口口 |--⑤-|
23
口口口口 |①---|
②③口口 |②-③-|
口口口口 |----|
①口口口 |----|
24
口口口① |----|
口口②口 |①---|
口口口③ |②---|
口口口口 |③---|
25
口口口口 |①---|
口口口口 |----|
口口口口 |----|
口口①口 |----|
26
①②口口 |①-②-|
口④口口 |--③-|
③口口口 |--④-|
⑤口口口 |--⑤-|
27
口口口口 |①---|
口口③③ |--②-|
②②口口 |----|
口口①① |③---|
28
①①②② |--①-|
口口口口 |----|
口③④口 |②---|
口口口口 |③-④-|
29
口口口口 |①---|
①口口① |②---|
口口④口 |③---|
口口③② |④---|
30
①口①口 |①-②-|
⑥②③口 |③-④-|
口口⑦口 |⑤-⑥-|
④⑧⑤口 |⑦-⑧-|
31
②③②口 |①---|
口⑥口① |②-③-|
④①口口 |④---⑤-|
口⑤口口 |--⑥---|
32
口口口口 |①---②-|
⑤口③① |--③---|
口口口口 |④---⑤-|
口④②口 |----|
33
①口口① |①---|
口口口口 |②---|
口口④口 |③---|
口口③② |④---|
34
①口口口 |①-②-|
⑥②口口 |③-④-|
口口⑦① |⑤-⑥-|
④⑧⑤③ |⑦-⑧-|
35
③①②口 |①---|
口口口口 |--②-|
②口口① |----|
口口口③ |③---|
36
口②口① |--①-|
口口口② |----|
③口口口 |②-③-|
①口③口 |----|
37
①口口① |①---|
口②口口 |②---|
④口③④ |③-④-|
口⑤口⑥ |⑤-⑥-|
38
⑤③②⑤ |①---|
③口口② |②-③-|
口①口口 |--④-|
①④④口 |--⑤-|
39
口口③⑦ |--①-|
口②⑥口 |②-③-|
①⑤口口 |④-⑤-|
④口口④ |⑥-⑦-|
40
口②口⑧ |①-②-|
①口⑦① |③-④-|
口⑥口④ |⑤-⑥-|
⑤口③⑤ |⑦-⑧-|
41
口④④口 |①---|
①口口① |②---|
口⑤③口 |③-④-|
口②口⑥ |⑤-⑥-|
42
①④④口 |①---|
口①口口 |②-③-|
③口口② |--④-|
⑤③②⑤ |--⑤-|
43
④口口口 |--①-|
①⑤口口 |②-③-|
口②⑥口 |④-⑤-|
口口③⑦ |⑥-⑦-|
44
⑤口口口 |①-②-|
③⑥口口 |③-④-|
①④⑦① |⑤-⑥-|
口②口⑧ |⑦-⑧-|
45
口口口口 |①-②-|
⑦口口⑤ |③-④-|
①⑧⑥① |⑤-⑥-|
②④③口 |⑦-⑧-|
46
口⑤⑤⑤ |①-②-|
口③①口 |③-④-|
④口口② |⑤-⑥-|
⑥⑥⑥口 |----|
47
①口口口 |①---|
口口口① |----|
口口口口
口口口口

③口口口
②②口口
③口口口 |----|
口口口口 |②-③-|
48
口口①口 |--①-|
口③③② |--②-|
口口①口 |--③-|
口④④② |--④-|
49
口①①口 |--①-|
口口口口 |--②-|
②口口② |----|
口口口口 |----|
50
④口口② |----|
①⑤③口 |①---|
口③⑤① |②-③-|
②口口④ |④-⑤-|
51
③口①口 |①---|
②②口口 |----|
③口口口 |----|
口①口口 |②-③-|
52
口④④② |--①-|
④口①④ |--②-|
口③③② |--③-|
口口①口 |--④-|
53
口口口口 |----|
口口口口 |--①-|
①口口① |----|
口①①口 |----|
54
口口口口 |①---|
口①①口 |----|
口①①口 |----|
②②口口 |②---|
55
②口口① |①-②-|
口口③③ |③-④-|
④⑧⑨⑤ |⑤-⑥-|
⑥口⑦⑦ |⑦-⑧⑨|
56
①口口口 |①-②-|
③③口② |③-④-|
⑤⑨⑧④ |⑤-⑥-|
⑦⑦口⑥ |⑦-⑧⑨|
57
口口口① |①-②-|
②口③③ |③-④-|
④⑧⑨⑤ |⑤-⑥-|
⑥口⑦⑦ |⑦-⑧⑨|
58
①口⑧⑦ |①-②-|
③⑥口② |③-④-|
⑤口口④ |⑤-⑥-|
口口口口 |⑦-⑧-|
59
口口⑧口 |①-②-|
口⑦⑥口 |③-④-|
⑤②③⑤ |⑤-⑥-|
①④口① |⑦-⑧-|
60
口⑦⑧口 |①-②-|
①口⑥① |③-④-|
⑤②③⑤ |⑤-⑥-|
口④口口 |⑦-⑧-|
61
④口口② |--①-|
⑤①③⑤ |②---|
口③①口 |③-④-|
②口口④ |--⑤-|
62
③③②口 |①---|
口口②口 |----|
①②口① |②---|
口②③③ |③---|
63
④口口② |--①-|
⑤①③⑤ |②---|
口③①口 |③-④-|
②口口④ |--⑤-|
64
②②③口 |①---|
口口③口 |----|
①③口① |②---|
口③②② |③---|
65
口口口口 |①---|
口①口① |----|
①口①口 |----|
口口口口 |----|
66
①①口口 |①---|
①口口口 |----|
口口口① |----|
口口①① |----|
67
口口口口 |①-②-|
口①④⑦ |③-④-|
口③②① |--⑤-|
口⑥⑤口 |⑥-⑦-|
68
③口①② |①-②-|
①⑦④口 |③-④-|
④⑤⑥口 |⑤-⑥-|
口口口口 |⑦---|
69
⑤口口⑥ |①-②-|
③⑦③④ |③-④-|
口口⑧⑦ |⑤-⑥-|
②①②口 |⑦-⑧-|
70
口口⑥⑦ |①-②-|
⑥口②⑤ |--③-|
口①口口 |④-⑤-|
口④③口 |⑥-⑦-|
71
①口口口 |①-②-|
口⑤②口 |③-④-|
②③④口 |⑤---|
⑦⑥⑦口 |⑥-⑦-|
72
③口口④ |①-②-|
①口①② |③-④-|
口口口口
口口口口

口口口口
口⑤⑧口
⑤⑦⑥⑤ |⑤-⑥-|
口口口口 |⑦-⑧-|
73
⑥④⑤④ |--①-|
④口⑦③ |②-③-|
⑦口口⑦ |④-⑤-|
口②①口 |⑥-⑦-|
74
口⑦口口 |①-②-|
⑤③⑥口 |③---|
口①②口 |④-⑤-|
⑤④⑥口 |⑥-⑦-|
75
②口①口 |①-②-|
口③⑥口 |③-④-|
③⑤④③ |⑤-⑥-|
口口⑦口 |--⑦-|
76
⑤③口④ |①-②-|
③口⑥② |③-④-|
⑥⑦⑧③ |⑤-⑥-|
口①口⑥ |⑦-⑧-|
77
⑦⑤⑥口 |①---|
③①④口 |②-③-|
口口口口 |④-⑤-|
③②④口 |⑥-⑦-|
78
口口口口 |----|
口口口口 |----|
口①①口 |----|
口口口口 |①---|

不確定度: 0

最終更新:2014年08月02日 00:28