アットウィキロゴ

Dense Forest Battle

EXTREME

Level: 8
BPM: 142
Notes: 641

1
口口口口 |----|
口口口口 |----|
口口口口 |----|
口口口口 |----|
2
口口口口 |①②③④|
⑧⑥⑦⑤ |----|
①③②④ |⑤⑥⑦⑧|
口口口口 |----|
3
⑧⑩⑨⑪ |①②③④|
口口口口 |----|
①③②④ |⑤-⑥⑦|
⑥口⑦⑤ |⑧⑨⑩⑪|
4
口口口口 |①②③④|
④②③① |----|
⑤⑦⑥⑧ |⑤⑥⑦⑧|
口口口口 |----|
5
⑤⑦口⑥ |①②③④|
④②③① |----|
口口口口 |⑤-⑥⑦|
⑪⑨⑩⑧ |⑧⑨⑩⑪|
6
口口口口 |①②③④|
⑧⑥⑦⑤ |----|
①③②④ |⑤⑥⑦⑧|
口口口口 |----|
7
⑧⑩⑨⑪ |①②③④|
口口口口 |----|
①③②④ |⑤-⑥⑦|
⑥口⑦⑤ |⑧⑨⑩⑪|
8
口口口口 |①②③④|
④②③① |----|
⑤⑦⑥⑧ |⑤⑥⑦⑧|
口口口口 |----|
9
⑤⑦口⑥ |①②③④|
④②③① |----|
口口口口 |⑤-⑥⑦|
⑪⑨⑩⑧ |⑧⑨⑩⑪|
10
⑤⑦⑥口 |①②③④|
⑪⑨⑩⑧ |-⑤⑥⑦|
①③②④ |⑧⑨⑩⑪|
口⑬⑭⑫ |-⑫⑬⑭|
11
⑪⑬⑫⑭ |①②③④|
⑤⑦⑥口 |-⑤⑥⑦|
①③②④ |⑧-⑨⑩|
⑨口⑩⑧ |⑪⑫⑬⑭|
12
⑫⑭⑬口 |①②③④|
④②③① |-⑤⑥⑦|
⑧⑩⑨⑪ |⑧⑨⑩⑪|
口⑥⑦⑤ |-⑫⑬⑭|
13
⑧⑩口⑨ |①②③④|
④②③① |-⑤⑥⑦|
口⑥⑦⑤ |⑧-⑨⑩|
⑭⑫⑬⑪ |⑪⑫⑬⑭|
14
口口口口 |①---|
①①①① |----|
口口口口
口口口口

口口口口
②⑤⑤②
口④④口 |--②-|
口③③口 |③④-⑤|
15
①①①① |①---|
口口口口 |----|
口口口口 |----|
口口口口 |----|
16
口口口口 |①---|
①①①① |----|
口口口口
口口口口

口口口口
②⑤⑤②
口④④口 |--②-|
口③③口 |③④-⑤|
17
口口口口 |①---|
口口口口 |----|
①口口① |----|
口口口口 |----|
18
口口口口 |①---|
口口口口 |----|
口口口口
①①①①

口口口口
②②口⑤
口口④口 |--②-|
口口口③ |③④-⑤|
19
口⑦⑥⑤ |①②③④|
口口口口 |-⑤⑥⑦|
①②口口
③④口口

口口口口
⑨口⑪⑫
⑩⑬⑭⑧ |⑧-⑨⑩|
口口口口 |⑪⑫⑬⑭|
20
口口口口 |①---|
口口口口 |----|
口口口口
①①①①

口口口口
⑤口②②
口④口口 |--②-|
③口口口 |③④-⑤|
21
⑤⑥⑦口 |①②③④|
口口口口 |-⑤⑥⑦|
口口②①
口口④③

口口口口
⑫⑪⑧⑨
口⑭⑬⑩ |⑧-⑨⑩|
口口口口 |⑪⑫⑬⑭|
22
口①②③ |①-②-|
⑤口口④ |-③--|
④口口⑤ |④-⑤-|
③②①口 |----|
23
③②①口 |①-②-|
④⑦⑦⑤ |-③--|
⑤⑥⑥④ |④-⑤-|
口①②③ |⑥⑦--|
24
口①②③ |①-②-|
⑤口口④ |-③--|
④口口⑤ |④-⑤-|
③②①口 |----|
25
③②①口 |①-②-|
④口口⑤ |-③--|
⑤口口④ |④---|
口①②③ |⑤---|
26
口口口口 |①---|
口①①口 |----|
口①①口 |----|
口口口口 |----|
27
口口口口 |----|
口口口口 |----|
口口口口 |----|
口口口口 |----|
28
①⑯⑮⑭ |①②③④|
③②⑬⑫ |⑤⑥⑦⑧|
⑤④⑪⑩ |⑨⑩⑪⑫|
⑦⑥⑨⑧ |⑬⑭⑮⑯|
29
⑤口口⑥ |①---|
⑧①⑨口 |②③-④|
④口口⑦ |⑤-⑥-|
口口③② |⑦⑧-⑨|
30
⑧⑥口口 |①-②-|
口口⑦⑤ |③-④-|
④②口口 |⑤-⑥-|
口口③① |⑦-⑧-|
31
口口口口 |①---|
口口⑥口 |②③--|
④⑤③④ |④---|
①②口① |⑤⑥--|
32
口口口口 |①---|
①③④① |②③-④|
口口②口
口口口口

⑤口口⑤
⑥口口⑥
口⑦⑧⑨ |⑤---|
口口口口 |⑥⑦⑧⑨|
33
⑤⑥⑦口 |①②③④|
⑩⑨口⑧ |-⑤⑥⑦|
⑪⑫口⑬ |⑧-⑨⑩|
④③②① |⑪⑫-⑬|
34
①②③④ |①②③④|
⑬口⑫⑪ |-⑤⑥⑦|
⑧口⑨⑩ |⑧-⑨⑩|
口⑦⑥⑤ |⑪⑫-⑬|
35
⑤口口⑥ |①---|
口④④口 |②③--|
口口②③ |④---|
①口口① |⑤⑥--|
36
⑮①②⑯ |①②③④|
⑬③④⑭ |⑤⑥⑦⑧|
⑪⑤⑥⑫ |⑨⑩⑪⑫|
⑨⑦⑧⑩ |⑬⑭⑮⑯|
37
口①③口 |①②③④|
口④②口 |--⑤⑥|
⑨⑤⑦⑨ |⑦⑧-⑨|
⑩⑧⑥⑩ |-⑩--|
38
⑩④①⑩ |①②③④|
⑨②③⑨ |--⑤⑥|
口⑧⑤口 |⑦⑧-⑨|
口⑥⑦口 |-⑩--|
39
口①③口 |①②③④|
口④②口 |--⑤⑥|
⑨⑤⑦⑨ |⑦⑧-⑨|
⑩⑧⑥⑩ |-⑩--|
40
口④①口 |①②③④|
⑨②③⑧ |--⑤⑥|
⑦⑤⑥⑩ |⑦⑧⑨⑩|
口⑪⑪口 |-⑪--|
41
①口口④ |①②③④|
⑨⑤⑧⑨ |--⑤⑥|
⑩⑦⑥⑩ |⑦⑧-⑨|
③口口② |-⑩--|
42
③口口① |①②③④|
口口⑤口 |--⑤⑥|
口⑥口口
②口口④

⑩口口⑩
口⑦口口
口口⑧口 |⑦⑧-⑨|
口⑨⑨口 |-⑩--|
43
⑩⑤⑧⑩ |①②③④|
①口口④ |--⑤⑥|
③口口② |⑦⑧-⑨|
⑨⑦⑥⑨ |-⑩--|
44
口口⑥口 |①②③④|
③口口② |--⑤⑥|
①口口④
口⑤口口

口⑦口口
⑨⑨⑨⑨
口⑫⑪⑩ |⑦⑧--|
口口⑧口 |⑨⑩⑪⑫|
45
⑩⑪④③ |①②③④|
⑭⑬⑥⑦ |-⑤⑥⑦|
⑤口口⑫ |⑧⑨⑩⑪|
①②⑨⑧ |-⑫⑬⑭|
46
口⑤③口 |①②③④|
⑩口②⑩ |-⑤⑥⑦|
⑨①⑦⑨ |-⑧-⑨|
⑧④⑥⑧ |-⑩--|
47
①①①① |①---|
②⑤⑤② |----|
口④④口 |--②-|
口③③口 |③④-⑤|
48
①口口① |①②③④|
口口口口 |-⑤⑥⑦|
②口口③
④⑥⑦⑤

⑪⑬⑫⑭
口口口口
⑩⑧⑨口 |⑧-⑨⑩|
口口口口 |⑪⑫⑬⑭|
49
口口口口 |①---|
①①①① |----|
口口口口
口口口口

口⑤⑤口
②④④②
口③③口 |--②-|
口口口口 |③④-⑤|
50
①口口① |①②③④|
口口口口 |-⑤⑥⑦|
②口口③
④⑥⑦⑤

⑭⑫⑬⑪
口口口口
⑩⑧⑨口 |⑧-⑨⑩|
口口口口 |⑪⑫⑬⑭|
51
口口口口 |①---|
①①①① |----|
口口口口
口口口口

口口口口
②②口⑤
口口④口 |--②-|
口口口③ |③④-⑤|
52
口⑦⑥⑤ |①②③④|
口口口口 |-⑤⑥⑦|
①②口口
③④口口

口口口口
⑨口⑪⑫
⑩⑬⑭⑧ |⑧-⑨⑩|
口口口口 |⑪⑫⑬⑭|
53
口口口口 |①---|
口口口口 |----|
口口口口
①①①①

口口口口
⑤口②②
口④口口 |--②-|
③口口口 |③④-⑤|
54
⑤⑥⑦口 |①②③④|
口口口口 |-⑤⑥⑦|
口口②①
口口④③

口口口口
⑫⑪⑧⑨
口⑭⑬⑩ |⑧-⑨⑩|
口口口口 |⑪⑫⑬⑭|
55
⑤⑦⑥口 |①②③④|
口口口口 |-⑤⑥⑦|
口口口口
①③②④

口口口口
⑪⑨⑩⑧
口口口口 |⑧⑨⑩⑪|
口⑬⑭⑫ |-⑫⑬⑭|
56
⑪⑬⑫⑭ |①②③④|
⑤⑦⑥口 |-⑤⑥⑦|
①③②④ |⑧-⑨⑩|
⑨口⑩⑧ |⑪⑫⑬⑭|
57
⑫⑭⑬口 |①②③④|
④②③① |-⑤⑥⑦|
⑧⑩⑨⑪ |⑧⑨⑩⑪|
口⑥⑦⑤ |-⑫⑬⑭|
58
⑧⑩口⑨ |①②③④|
④②③① |-⑤⑥⑦|
口⑥⑦⑤ |⑧-⑨⑩|
⑭⑫⑬⑪ |⑪⑫⑬⑭|


不確定度: 0

最終更新:2014年02月05日 18:58