アットウィキロゴ

Dense Forest Battle

ADVANCED

Level: 5
BPM: 142
Notes: 383

1
口口口口 |----|
口口口口 |----|
口口口口 |----|
口口口口 |----|
2
口②②口 |①---|
口口口口 |----|
口①①口 |②---|
口口口口 |----|
3
②口口② |①---|
口①①口 |----|
口口口口 |②---|
③口口③ |③---|
4
口②②口 |①---|
口口口口 |----|
口①①口 |②---|
口口口口 |----|
5
②口口② |①---|
口①①口 |----|
口口口口 |②---|
③口口③ |③---|
6
②②口口 |①---|
口口口口 |----|
口口①① |②---|
口口口口 |----|
7
②口口② |①---|
口①①口 |----|
口口口口 |②---|
③口口③ |③---|
8
口口②② |①---|
口口口口 |----|
①①口口 |②---|
口口口口 |----|
9
②口口② |①---|
口①①口 |----|
口口口口 |②---|
③口口③ |③---|
10
口口口口 |①②③④|
①②③④ |----|
⑧⑦⑥⑤ |⑤⑥⑦⑧|
口口口口 |----|
11
⑤口口⑤ |①②③④|
①②③④ |----|
口口口口 |⑤---|
⑥口口⑥ |⑥---|
12
口口口口 |①②③④|
④③②① |----|
⑤⑥⑦⑧ |⑤⑥⑦⑧|
口口口口 |----|
13
⑤口口⑤ |①②③④|
④③②① |----|
口口口口 |⑤---|
⑥口口⑥ |⑥---|
14
口口口口 |①---|
口口②口 |----|
⑤①①口 |--②-|
③④口口 |③④-⑤|
15
口口口口 |①---|
口口口口 |----|
口①口口 |----|
口口口口 |----|
16
口口口口 |①---|
口②口口 |----|
口①①⑤ |--②-|
口口④③ |③④-⑤|
17
口口口口 |①---|
口口口口 |----|
口口①口 |----|
口口口口 |----|
18
⑤口口口 |①---|
③④②口 |----|
口①①口 |--②-|
口口口口 |③④-⑤|
19
口①口口 |①---|
口口口口 |----|
口口口口 |----|
口口口口 |----|
20
口口口⑤ |①---|
口②④③ |----|
口①①口 |--②-|
口口口口 |③④-⑤|
21
口口①口 |①---|
口口口口 |----|
口口口口 |----|
口口口口 |----|
22
①口口口 |①-②-|
②口口口 |-③--|
口口口⑤ |④-⑤-|
③口口④ |----|
23
口口口① |①-②-|
口⑦⑥② |-③--|
⑤口口口 |④-⑤-|
④口口③ |⑥⑦--|
24
①口口口 |①-②-|
②口口口 |-③--|
口口口⑤ |④-⑤-|
③口口④ |----|
25
口⑤⑤① |①-②-|
口口口② |-③--|
口④④口 |④---|
口口口③ |⑤---|
26
口口口口 |①---|
①①①① |----|
口口口口 |----|
口口口口 |----|
27
口口口口 |----|
口口口口 |----|
口口口口 |----|
口口口口 |----|
28
①口口⑤ |①-②-|
口②⑥口 |③-④-|
口⑦③口 |⑤-⑥-|
⑧口口④ |⑦-⑧-|
29
②③口④ |①---|
口口口口 |②③-④|
①口口①
口口口口

口口口口
口⑥⑤口
⑨口⑧⑦ |⑤-⑥-|
口口口口 |⑦⑧-⑨|
30
口口口口 |①---|
口口口口 |----|
口口口口 |----|
口①①口 |----|
31
口口口口 |①---|
口口口口 |②③--|
⑥⑤②③ |④---|
①口口④ |⑤⑥--|
32
⑤口口⑤ |①---|
①④②③ |②③-④|
⑥口口⑥ |⑤---|
口口口口 |⑥---|
33
⑦⑥口⑤ |①②③④|
⑩口⑨⑧ |----|
口①②口 |⑤-⑥⑦|
口③④口 |⑧⑨-⑩|
34
⑤口⑥⑦ |①②③④|
⑧⑨口⑩ |----|
口①②口 |⑤-⑥⑦|
口③④口 |⑧⑨-⑩|
35
口口口口 |①---|
口口口口 |②③--|
③②⑤⑥ |④---|
④口口① |⑤⑥--|
36
④⑤口⑥ |①②③-|
口③②① |④⑤-⑥|
⑦口口⑦ |⑦---|
⑧口口⑧ |⑧---|
37
口⑦⑧口 |①②③④|
⑨⑤⑥口 |--⑤⑥|
口①②⑩ |⑦⑧-⑨|
口③④口 |-⑩--|
38
口⑦⑧口 |①②③④|
⑩⑤⑥口 |--⑤⑥|
口①②⑨ |⑦⑧-⑨|
口③④口 |-⑩--|
39
口⑦⑧口 |①②③④|
⑨⑤⑥口 |--⑤⑥|
口①②⑩ |⑦⑧-⑨|
口③④口 |-⑩--|
40
⑨口口⑩ |①②③④|
⑪口口⑧ |--⑤⑥|
⑦①②口 |⑦⑧⑨⑩|
⑤③④⑥ |-⑪--|
41
口①口口 |①②③④|
口②口口 |--⑤⑥|
口⑤③口
口⑥④口

口口⑦口
口⑨⑧口
口口⑩口 |⑦⑧-⑨|
口口口口 |-⑩--|
42
①口口⑦ |①②③④|
②口⑨⑧ |--⑤⑥|
⑤⑩口③ |⑦⑧-⑨|
⑥口口④ |-⑩--|
43
口口口口 |①②③④|
①②⑥⑤ |--⑤⑥|
口口③④
口口口口

口口口口
⑨口口口
⑧⑦口⑩ |⑦⑧-⑨|
口口口口 |-⑩--|
44
①②⑥⑤ |①②③④|
⑨⑨⑨⑨ |--⑤⑥|
口口口口 |⑦⑧--|
⑧⑦③④ |⑨---|
45
④②②③ |①---|
④口口③ |②---|
口①①口 |③---|
口口口口 |④---|
46
口口口口 |①---|
口⑤⑤口 |②---|
①④④① |-③-④|
②③③② |-⑤--|
47
口口口口 |①---|
①口②① |----|
⑤口口口 |--②-|
③④口口 |③④-⑤|
48
口②⑤⑥ |①---|
口③④⑦ |②-③-|
口①口口 |④-⑤-|
口口口口 |⑥-⑦-|
49
口口口口 |①---|
口口口口 |----|
①口口①
口口口口

口口口口
口②口口
口口口⑤ |--②-|
口口④③ |③④-⑤|
50
⑥⑤②口 |①---|
⑦④③口 |②-③-|
口口①口 |④-⑤-|
口口口口 |⑥-⑦-|
51
⑤口口口 |①---|
③④②口 |----|
口①①口 |--②-|
口口口口 |③④-⑤|
52
口①口口 |①---|
口口②③ |②-③-|
口口口口
口口口口

⑦⑥⑤④
口口口口
口口口口 |④-⑤-|
口口口口 |⑥-⑦-|
53
口口口口 |①---|
口①①口 |----|
口口口口
口口口口

口口口⑤
口②④③
口口口口 |--②-|
口口口口 |③④-⑤|
54
口口①口 |①---|
口口口口 |②-③-|
口口②③ |④-⑤-|
⑦⑥⑤④ |⑥-⑦-|
55
口口口口 |①②③④|
⑧⑦⑥⑤ |----|
①②③④ |⑤⑥⑦⑧|
口口口口 |----|
56
⑤口口⑤ |①②③④|
口口口口 |----|
①②③④ |⑤---|
⑥口口⑥ |⑥---|
57
口口口口 |①②③④|
④③②① |----|
⑤⑥⑦⑧ |⑤⑥⑦⑧|
口口口口 |----|
58
⑤口口⑤ |①②③④|
④③②① |----|
口口口口 |⑤---|
⑥口口⑥ |⑥---|


不確定度: 0

最終更新:2014年02月05日 18:57