アットウィキロゴ

Dense Forest Battle

BASIC

Level: 2
BPM: 142
Notes: 231

1
口口口口 |----|
口口口口 |----|
口口口口 |----|
口口口口 |----|
2
口②口口 |①---|
口①口口 |----|
口口口口 |②---|
口口口口 |----|
3
口口口口 |①---|
②①口口 |----|
③口口口 |②---|
口口口口 |③---|
4
口口②口 |①---|
口口①口 |----|
口口口口 |②---|
口口口口 |----|
5
口口口口 |①---|
口口①② |----|
口口口③ |②---|
口口口口 |③---|
6
口②口口 |①---|
口①口口 |----|
口口口口 |②---|
口口口口 |----|
7
口口口口 |①---|
②①口口 |----|
③口口口 |②---|
口口口口 |③---|
8
口口②口 |①---|
口口①口 |----|
口口口口 |②---|
口口口口 |----|
9
口口口口 |①---|
口口①② |----|
口口口③ |②---|
口口口口 |③---|
10
口②②口 |①---|
口①①口 |----|
口口口口 |②---|
口口口口 |----|
11
口口口口 |①---|
②①①② |----|
③口口③ |②---|
口口口口 |③---|
12
口②②口 |①---|
口①①口 |----|
口口口口 |②---|
口口口口 |----|
13
口口口口 |①---|
②①①② |----|
③口口③ |②---|
口口口口 |③---|
14
口口口口 |①---|
口口口口 |----|
口①①口
口口口口

口口口口
口口口口
口②口口 |----|
口口口口 |②---|
15
口口口口 |①---|
①口口口 |----|
口口口口 |----|
口口口口 |----|
16
口口口口 |①---|
口口口口 |----|
口①①口
口口口口

口口口口
口口口口
口口②口 |----|
口口口口 |②---|
17
口口口口 |①---|
口口口① |----|
口口口口 |----|
口口口口 |----|
18
口口口口 |①---|
①②口① |----|
口口口口 |----|
口口口口 |②---|
19
①口口口 |①---|
口口口口 |----|
口口口口 |----|
口口口口 |----|
20
口口口口 |①---|
①口②① |----|
口口口口 |----|
口口口口 |②---|
21
口口口① |①---|
口口口口 |----|
口口口口 |----|
口口口口 |----|
22
口口口口 |①---|
口口口口 |----|
口口口口 |②---|
①②②① |----|
23
口口口口 |①---|
口口口口 |----|
①②②① |②---|
③口口③ |③---|
24
口口口口 |①---|
①②②① |----|
口口口口 |②---|
口口口口 |----|
25
①②②① |①---|
③口口③ |----|
口口口口 |②---|
口口口口 |③---|
26
口口口口 |①---|
口①①口 |----|
口①①口 |----|
口口口口 |----|
27
口口口口 |----|
口口口口 |----|
口口口口 |----|
口口口口 |----|
28
口口口口 |----|
口口口口 |----|
口口口口 |----|
口口口口 |----|
29
口口口口 |①---|
口口口口 |②---|
口口③④ |③---|
①②口① |④---|
30
口口口口 |①---|
口口口口 |②---|
④③口口 |③---|
口口②① |④---|
31
口口③④ |①---|
①②口口 |②---|
口口口口 |③---|
口口口口 |④---|
32
④③口口 |①---|
口口②① |②---|
口口口口 |③---|
口口口口 |④---|
33
口口口口 |①---|
①口④口 |②---|
口③口口 |③---|
②口口口 |④---|
34
口口口口 |①---|
④口口口 |②---|
口③口① |③---|
口口②口 |④---|
35
口①口口 |①---|
口口②口 |②---|
口③口口 |③---|
口口④口 |④---|
36
口口口口 |①---|
②③③② |②---|
①④④① |③---|
口口口口 |④---|
37
①口口① |①---|
口②口口 |--②-|
口口③口 |----|
口口口口 |③---|
38
①口口① |①---|
口口②口 |--②-|
口③口口 |----|
口口口口 |③---|
39
口口口口 |①---|
口①①口 |--②-|
口口②口 |----|
口口口③ |③---|
40
口口口口 |①---|
口①①口 |--②-|
口②口口 |----|
③口口口 |③---|
41
口②②口 |①---|
③①①③ |--②-|
口口口口 |----|
口口口口 |③---|
42
口口口口 |①---|
口②②口 |--②-|
③①①③ |----|
口口口口 |③---|
43
口②②口 |①---|
③①①③ |--②-|
口口口口 |----|
口口口口 |③---|
44
口口口口 |①---|
口②②口 |--②-|
③①①③ |----|
口口口口 |③---|
45
口口口口 |①---|
口①②口 |----|
口②①口 |②---|
口口口口 |----|
46
口口口口 |①---|
口③③口 |----|
①②②① |②---|
口口口口 |③---|
47
口口口④ |①---|
口口③口 |②---|
口②口口 |③---|
①口口口 |④---|
48
口口口口 |①---|
①口口① |②---|
②③③② |③---|
口④④口 |④---|
49
④口口口 |①---|
口③口口 |②---|
口口②口 |③---|
口口口① |④---|
50
口口口口 |①---|
①口口① |②---|
②③③② |③---|
口④④口 |④---|
51
口口口口 |①---|
①口③① |②---|
口②口④ |③---|
口口口口 |④---|
52
口口口口 |①---|
①③口① |②---|
④口②口 |③---|
口口口口 |④---|
53
口口口口 |①---|
口口③④ |②---|
口②口口 |③---|
①口口① |④---|
54
④③口口 |①---|
口口②口 |②---|
①口口① |③---|
口口口口 |④---|
55
口口口② |①---|
口①①③ |②---|
口口口④ |③---|
口口口口 |④---|
56
④口口口 |①---|
③口口口 |②---|
②口口口 |③---|
口①①口 |④---|
57
口口口② |①---|
口①①③ |②---|
口口口④ |③---|
口口口口 |④---|
58
④口口口 |①---|
③口口口 |②---|
②口口口 |③---|
口①①口 |④---|


不確定度: 0

最終更新:2014年02月05日 18:58