アットウィキロゴ

愛しき為の闘い
新井大樹

ADVANCED

Level: 7
BPM: 148
Notes: 601

1
口口口口 |----|
口口口口 |----|
口口口口 |----|
口口口口 |----|
2
口①②口 |①②-③|
③口口④ |④⑤⑥⑦|
⑤口口⑥
⑦口口口

口口口口
口⑨⑩⑮
口⑪⑫口 |⑧⑨⑩⑪|
口⑬⑭⑧ |⑫⑬⑭⑮|
3
口口口口 |----|
口口口口 |----|
口口口口 |----|
口口口口 |----|
4
口②①口 |①②-③|
④口口③ |④⑤⑥⑦|
⑥口口⑤
口口口⑦

口口口口
⑮⑩⑨口
口⑫⑪口 |⑧⑨⑩⑪|
⑧⑭⑬口 |⑫⑬⑭⑮|
5
②①①② |①---|
口口口口 |②---|
④③③④ |③---|
口口口口 |④---|
6
①口口① |①---|
②口口② |②---|
③口口③ |③---|
④口口④ |④---|
7
口①①口 |①---|
口③③口 |②---|
口②②口 |③---|
口④④口 |④---|
8
①口口① |①---|
②口口② |②---|
③口口③ |③---|
④口口④ |④---|
9
口①①口 |①---|
口③③口 |②---|
口②②口 |③---|
口④④口 |④---|
10
④①口口 |①---|
①②口口 |②---|
口口②③ |③---|
口口③④ |④---|
11
口口①④ |①---|
口口②① |②---|
③②口口 |③---|
④③口口 |④---|
12
④①口口 |①---|
①②口口 |②---|
口口②③ |③---|
口口③④ |④---|
13
口口①④ |①---|
口口②① |②---|
③②口口 |③---|
④③口口 |④---|
14
①口①口 |①---|
口②口② |②---|
③口③口 |③---|
口④口④ |④---|
15
口①口① |①---|
②口②口 |②---|
口③口③ |③---|
④口④口 |④---|
16
①口①口 |①---|
口②口② |②---|
③口③口 |③---|
口④口④ |④---|
17
口①口① |①---|
②口②口 |②---|
口③口③ |③---|
④口④口 |④---|
18
④口口④ |①---|
口①①口 |②---|
②口口② |③---|
口③③口 |④---|
19
口①①口 |①---|
②口口② |②---|
③口口③ |③---|
④口口④ |④---|
20
④口口④ |①---|
口①①口 |②---|
②口口② |③---|
口③③口 |④---|
21
口①①口 |①---|
②口口② |②---|
③口口③ |③---|
④口口④ |④---|
22
口口口② |①---|
口①①⑥ |②--③|
口①①口 |④⑤--|
③④⑤口 |⑥---|
23
②口口口 |①---|
⑥口口口 |②--③|
①口口口 |④⑤--|
口⑤④③ |⑥---|
24
口口口② |①---|
口①①⑥ |②--③|
口①①口 |④⑤--|
③④⑤口 |⑥---|
25
②口口口 |①---|
⑥口口口 |②--③|
①口口口 |④⑤--|
口⑤④③ |⑥---|
26
口口口② |①---|
口①①⑥ |②--③|
口①①口 |④⑤--|
③④⑤口 |⑥---|
27
②口口口 |①---|
⑥口口口 |②--③|
①口口口 |④⑤--|
口⑤④③ |⑥---|
28
口口口② |①---|
口①①⑥ |②--③|
口①①口 |④⑤--|
③④⑤口 |⑥---|
29
②口口口 |①---|
⑥口口口 |②--③|
①口口口 |④⑤--|
口⑤④③ |⑥---|
30
口⑦⑥口 |①-②-|
口①①⑧ |③-④-|
③口口② |⑤-⑥-|
口⑤④口 |⑦-⑧-|
31
⑤口口④ |①-②-|
①口口口 |③-④-|
③口⑧② |⑤-⑥-|
⑦口口⑥ |⑦-⑧-|
32
口⑦⑥口 |①-②-|
口①①⑧ |③-④-|
③口口② |⑤-⑥-|
口⑤④口 |⑦-⑧-|
33
⑤口口④ |①-②-|
①口口口 |③-④-|
③口⑧② |⑤-⑥-|
⑦口口⑥ |⑦-⑧-|
34
口⑦⑥口 |①-②-|
口①①⑧ |③-④-|
③口口② |⑤-⑥-|
口⑤④口 |⑦-⑧-|
35
⑤口口④ |①-②-|
①口口口 |③-④-|
③口⑧② |⑤-⑥-|
⑦口口⑥ |⑦-⑧-|
36
口⑦⑥口 |①-②-|
口①①⑧ |③-④-|
③口口② |⑤-⑥-|
口⑤④口 |⑦-⑧-|
37
⑤口口④ |①-②-|
①口口口 |③-④-|
③口⑧② |⑤-⑥-|
⑦口口⑥ |⑦-⑧-|
38
口①①口 |①---|
②口口② |②---|
③口口③ |③---|
口④④口 |④---|
39
①口口① |①---|
口②②口 |②---|
口③③口 |③---|
④口口④ |④---|
40
口口口口 |①---|
①③④② |②---|
②④③① |③---|
口口口口 |④---|
41
③①②④ |①---|
口口口口 |②---|
口口口口 |③---|
④②①③ |④---|
42
口①①口 |①---|
②口口② |②---|
③口口③ |③---|
口④④口 |④---|
43
①口口① |①---|
口②②口 |②---|
口③③口 |③---|
④口口④ |④---|
44
口口口口 |①---|
①③④② |②---|
②④③① |③---|
口口口口 |④---|
45
③①②④ |①---|
口口口口 |②---|
口口口口 |③---|
④②①③ |④---|
46
口①①口 |①---|
口③口② |--②-|
④口④口 |--③-|
③口②口 |--④-|
47
②口③口 |①---|
口④口④ |--②-|
口②口③ |--③-|
口①口① |--④-|
48
③④②④ |①---|
口口口口 |--②-|
①③①② |--③-|
口口口口 |--④-|
49
口口⑤口 |①-②-|
①④①口 |③-④⑤|
口口口②
口③口口

口口口⑧
口口⑨口
口口⑥口 |--⑥-|
⑦口口口 |⑦-⑧⑨|
50
口口口口 |①---|
②口口② |--②-|
③①口③ |--③-|
④口口④ |-④--|
51
①口④⑨ |①②③-|
口②口口 |④-⑤⑥|
⑤⑧③口 |--⑦-|
口⑥口⑦ |⑧-⑨-|
52
口①口口 |①---|
②口口② |--②-|
③口口③ |--③-|
④口口④ |--④-|
53
口①①口 |①-②-|
口②②口 |③-④-|
⑤③③⑤ |⑤---|
口④④口 |----|
54
口①②口 |①②-③|
口④口口 |--④-|
口口口③
口口口口

口口口口
口口口口
⑥口⑤⑧ |⑤-⑥-|
口口口⑦ |⑦-⑧-|
55
口口⑥口 |①--②|
口②口③ |--③-|
⑤⑦④口 |④-⑤-|
①口口口 |⑥-⑦-|
56
口口口口 |①--②|
⑤②⑥③ |--③-|
口口④口 |④-⑤-|
口⑦①① |⑥-⑦-|
57
口口口口 |①---|
口口口口 |②-③-|
②口③①
口口口口

口⑥口口
口④口⑤
口口口⑦ |④-⑤-|
口口口口 |⑥-⑦-|
58
口口口口 |①--②|
口③口口 |--③-|
口口②口
①①口口

口口口④
口口⑥口
⑤口口口 |④-⑤-|
口⑦口口 |⑥-⑦-|
59
口⑤口口 |①--②|
③口④② |--③-|
口口口⑥ |④-⑤-|
⑦口口① |⑥-⑦-|
60
口口②口 |①--②|
③口⑥口 |--③-|
口⑤口④ |④-⑤-|
口⑦①① |⑥-⑦-|
61
口口口口 |①---|
⑥②⑤③ |②-③-|
口口口⑦ |④-⑤-|
④口口① |⑥-⑦-|
62
口①②口 |①②-③|
口④口③ |④⑤⑥⑦|
⑥口⑤口
口口口⑦

口口口口
⑩⑮⑨口
口⑫口⑪ |⑧⑨⑩⑪|
⑭⑧⑬口 |⑫⑬⑭⑮|
63
口口①① |①---|
口口②② |②---|
③③口口 |③---|
④④口口 |④---|
64
①①口口 |①---|
②②口口 |②---|
口口③③ |③---|
口口④④ |④---|
65
口①②口 |①---|
口②①口 |②---|
口③④口 |③---|
口④③口 |④---|
66
③口①口 |①---|
口②④口 |②---|
口③口① |③---|
②口口④ |④---|
67
口口①口 |①---|
①④口② |②---|
③②口④ |③---|
口口③口 |④---|
68
①口口① |①---|
③口口③ |②---|
④口口④ |③---|
②口口② |④---|
69
口口口口 |①---|
③①②④ |②---|
④②①③ |③---|
口口口口 |④---|
70
⑤④③② |①---|
口口口⑪ |--②③|
口①①⑩ |④⑤⑥⑦|
⑥⑦⑧⑨ |⑧⑨⑩⑪|
71
口口口② |①---|
口①①⑥ |②--③|
口①①口 |④⑤--|
③④⑤口 |⑥---|
72
②口口口 |①---|
⑥口口口 |②--③|
①口口口 |④⑤--|
口⑤④③ |⑥---|
73
口口口② |①---|
口①①⑥ |②--③|
口①①口 |④⑤--|
③④⑤口 |⑥---|
74
②⑦⑧口 |①---|
⑥口口⑨ |②--③|
①口口口 |④⑤--|
口⑤④③ |⑥⑦⑧⑨|

不確定度: 0

最終更新:2014年05月21日 18:02