アットウィキロゴ

新しい光
9mm Parabellum Bullet

ADVANCED

Level: 7
BPM: 180
Notes: 461

BPM在180附近飄忽不定
1
口口口口 |----|
口口口口 |----|
口口口口 |----|
口口口口 |----|
2
口口口口 |----|
口口口口 |----|
口口口口 |----|
口口口口 |----|
3
口口口口 |①---|
口②④口 |②---|
口口口口 |③---|
口①③口 |④---|
4
口口口口 |①---|
口口口口 |----|
①口口① |②---|
②口口③ |③---|
5
口口口口 |①---|
口②④口 |②---|
口口口口 |③---|
口①③口 |④---|
6
口口口口 |①---|
口口口口 |----|
①口③① |②---|
口②口口 |③---|
7
口口③② |①---|
口①口口 |----|
口口口口 |②---|
口口口口 |③---|
8
口口口口 |①---|
①②口口 |②---|
口口④③ |③---|
口口口口 |④---|
9
口口口口 |①---|
口口口口 |----|
口口口口 |----|
①①①① |----|
10
口口口口 |----|
口口口口 |----|
口口口口 |----|
口口口口 |----|
11
口口口口 |①--②|
口口③口 |--③-|
②④④口 |--④-|
口口①口 |----|
12
口口口口 |①--②|
口③口口 |--③-|
口④④② |--④-|
口①口口 |----|
13
口口口口 |①--②|
口口③口 |--③-|
②④④口 |--④-|
口口①口 |----|
14
口口口口 |①--②|
口③口口 |--③-|
口④④② |--④-|
口①口口 |----|
15
口口口口 |①--②|
口口③口 |--③-|
②④④口 |--④-|
口口①口 |----|
16
口口口口 |①--②|
口③口口 |--③-|
口④④② |--④-|
口①口口 |----|
17
口口口口 |①--②|
口口③口 |--③-|
②④④口 |--④-|
口口①口 |----|
18
口④②口 |①---|
①口口③ |②---|
口口口口 |③---|
口口口口 |④---|
19
口口口口 |①---|
口①①口 |----|
口①①口 |----|
口口口口 |----|
20
口口口口 |----|
口口口口 |----|
口口口口 |----|
口口口口 |----|
21
口口①口 |--①-|
口⑥口口 |--②-|
口④⑤口 |③-④-|
口②③口 |⑤-⑥-|
22
③口口③ |①--②|
口口①口 |--③-|
②口口② |----|
口口口口 |----|
23
口口口口 |--①-|
①⑤⑥② |--②-|
口③④口 |③-④-|
口口口口 |⑤-⑥-|
24
①口口① |①---|
口口口口 |----|
口口口口 |----|
口口口口 |----|
25
口口①口 |--①-|
口⑥口口 |--②-|
口④⑤口 |③-④-|
口②③口 |⑤-⑥-|
26
③口口③ |①--②|
口口①口 |--③-|
②口口② |----|
口口口口 |----|
27
口口口口 |--①-|
②⑥⑤① |--②-|
口④③口 |③-④-|
口口口口 |⑤-⑥-|
28
口②②口 |①---|
口口口口 |----|
①口口① |②---|
口口口口 |----|
29
口口口口 |①---|
口口口口 |----|
口②③口 |----|
口①①口 |②-③-|
30
⑤⑤⑤⑤ |①-②-|
口①②口 |--③-|
口口口口 |--④-|
③③④④ |--⑤-|
31
口口口口 |①-②-|
③⑦⑧④ |③-④-|
①⑤⑥② |⑤-⑥-|
口口口口 |⑦-⑧-|
32
口口口口 |①-②-|
③⑦⑧④ |③-④-|
①⑤⑥② |⑤-⑥-|
口口口口 |⑦-⑧-|
33
①口口① |①---|
口口口口 |----|
口②③口 |----|
口口口口 |②-③-|
34
⑤⑤⑤⑤ |①-②-|
口①②口 |--③-|
口口口口 |--④-|
③③④④ |--⑤-|
35
口口口口 |①-②-|
③⑦⑧④ |③-④-|
①⑤⑥② |⑤-⑥-|
口口口口 |⑦-⑧-|
36
口口口口 |①-②-|
③⑦⑧④ |③-④-|
①⑤⑥② |⑤-⑥-|
口口口口 |⑦-⑧-|
37
①①①① |①---|
口口口口 |----|
口口口口 |----|
口口口口 |----|
38
口口口口 |----|
口口口口 |----|
口口口口 |----|
口口口口 |----|
39
口①口口 |--①-|
口口⑥口 |--②-|
口⑤④口 |③-④-|
口③②口 |⑤-⑥-|
40
③口口③ |①--②|
口①口口 |--③-|
②口口② |----|
口口口口 |----|
41
口口口口 |--①-|
②⑥⑤① |--②-|
口④③口 |③-④-|
口口口口 |⑤-⑥-|
42
①口口① |①---|
口口口口 |----|
口口口口 |----|
口口口口 |----|
43
口①口口 |--①-|
口口⑥口 |--②-|
口⑤④口 |③-④-|
口③②口 |⑤-⑥-|
44
③口口③ |①--②|
口①口口 |--③-|
②口口② |----|
口口口口 |----|
45
口口口口 |--①-|
①⑤⑥② |--②-|
口③④口 |③-④-|
口口口口 |⑤-⑥-|
46
口②②口 |①---|
口口口口 |----|
①口口① |②---|
口口口口 |----|
47
口口口口 |①---|
口口口口 |----|
口③②口 |----|
口①①口 |②-③-|
48
⑤⑤⑤⑤ |①-②-|
口②①口 |--③-|
口口口口 |--④-|
④④③③ |--⑤-|
49
口口口口 |①-②-|
④⑧⑦③ |③-④-|
②⑥⑤① |⑤-⑥-|
口口口口 |⑦-⑧-|
50
口口口口 |①-②-|
④⑧⑦③ |③-④-|
②⑥⑤① |⑤-⑥-|
口口口口 |⑦-⑧-|
51
①口口① |①---|
口口口口 |----|
口③②口 |----|
口口口口 |②-③-|
52
⑤⑤⑤⑤ |①-②-|
口②①口 |--③-|
口口口口 |--④-|
④④③③ |--⑤-|
53
口口口口 |①-②-|
④⑧⑦③ |③-④-|
②⑥⑤① |⑤-⑥-|
口口口口 |⑦-⑧-|
54
口口口口 |①-②-|
④⑧⑦③ |③-④-|
②⑥⑤① |⑤-⑥-|
口口口口 |⑦-⑧-|
55
口口口口 |①-②-|
④⑧⑦③ |③-④-|
②⑥⑤① |⑤-⑥-|
口口口口 |⑦-⑧-|
56
①①②② |①---|
口口口口 |②---|
口口口口 |③---|
③③④④ |④---|
57
口②④口 |①---|
口口口口 |②---|
①口口③ |③---|
口口口口 |④---|
58
口③口口 |①---|
口口口口 |----|
②①①口 |②---|
口口口口 |③---|
59
口口②口 |①---|
口④④口 |②---|
口③③① |③---|
口口口口 |④---|
60
口口口口 |①---|
口口口口 |----|
①③口① |②---|
口口②口 |③---|
61
②口口③ |①---|
口口①口 |----|
口口口口 |②---|
口口口口 |③---|
62
口口口口 |①---|
①口口② |②---|
③口口④ |③---|
口口口口 |④---|
63
口口口口 |①---|
口①①口 |----|
口口口口 |----|
口①①口 |----|
64
①口口口 |----|
口口②口 |----|
口③口口 |①--②|
口口口口 |--③---|
65
口口口② |①---|
口③口口 |----|
口口④口 |②--③|
口口口① |--④---|
66
口②口口 |①---|
口口③口 |----|
口④口口 |②--③|
①口口口 |--④-|
67
②口口② |①---|
口口口口 |②---|
③口①③ |③---|
口④④口 |④---|
68
口口口口 |①---|
①①①① |----|
③②③② |②---|
口口口口 |③---|
69
口③③② |①---|
①口①② |----|
口口口口 |②---|
口口口口 |③---|
70
①口口口 |①---|
①口口口 |②---|
④②②③ |③---|
④口口③ |④---|
71
口口口口 |①---|
口①①口 |----|
口口口口 |----|
口①①口 |----|
72
口口口① |----|
口②口口 |----|
口口③口 |①--②|
口口口口 |--③---|
73
②口口口 |①---|
口口③口 |----|
口④口口 |②--③|
①口口口 |--④---|
74
口口②口 |①---|
口③口口 |----|
口口④口 |②--③|
口口口① |--④-|
75
②口口② |①---|
口口口口 |②---|
③①口③ |③---|
口④④口 |④---|
76
口口口口 |①---|
①①①① |----|
口口口口 |----|
口口口口 |----|
77
口口②口 |----|
口口口② |----|
①口口口 |①---|
口①口口 |②---|
78
口②④口 |①---|
②口口④ |②---|
③口口① |③---|
口③①口 |④---|
79
①口口② |①---|
口口口口 |----|
口①②口 |②---|
③口口③ |③---|
80
口①①口 |①---|
口①①口 |----|
口口口口 |----|
口口口口 |----|
81
②②④④ |①---|
口口口口 |②---|
③口口① |③---|
口口口口 |④---|
82
③③口口 |①---|
口口口口 |----|
口①①② |②---|
口口口口 |③---|
83
口口②② |①---|
口④④口 |②---|
①③③口 |③---|
口口口口 |④---|
84
口口口口 |①---|
口口口口 |----|
②③②③ |②---|
①口口① |③---|
85
②③③口 |①---|
②①口① |----|
口口口口 |②---|
口口口口 |③---|
86
口口口① |①---|
口口口① |②---|
③②②④ |③---|
③口口④ |④---|
87
口口口口 |①---|
口①①口 |----|
口口口口 |----|
口①①口 |----|
88
③口口③ |①--②|
口口口口 |--③-|
①口口② |----|
①口口② |----|
89
口②②口 |①---|
口②②口 |----|
口口口口 |②---|
口①①口 |----|

不確定度: 0

最終更新:2014年05月21日 18:03