アットウィキロゴ

SHION
DJ YOSHITAKA

BASIC

Level: 4
BPM: 179
Notes: 338

1
口口口口 |----|
口口口口 |----|
口口口口 |----|
口口口口 |----|
2
口口口口 |----|
口口口口 |----|
口①①口 |----|
口口口口 |--①-|
3
口口口口 |----|
口口口口 |----|
口口口口 |----|
口①①口 |--①-|
4
口口口口 |----|
口口口① |----|
口口口口 |----|
口口口口 |--①-|
5
口口口口 |----|
口②①口 |--①-|
口口口口 |----|
口口口口 |--②-|
6
口口口口 |----|
口口口口 |----|
口口口口 |----|
口①①口 |--①-|
7
口口口口 |--①-|
口②口① |--②-|
口④口③ |--③-|
口④口口 |--④-|
8
口口口口 |--①-|
①口②口 |--②-|
③口④口 |--③-|
口口④口 |--④-|
9
口口口口 |----|
口口口口 |----|
口口口口 |①---|
①口口① |----|
10
②口口② |①---|
口口口口 |----|
①口口① |----|
口口口口 |--②-|
11
口口口口 |----|
口口①口 |①---|
口④②口 |②---|
口口③口 |③-④-|
12
口②③口 |--①-|
口①口口 |--②-|
口口口口 |--③-|
口口口口 |----|
13
口口口口 |①---|
口④口① |②---|
口③⑤② |③---|
口口口口 |④-⑤-|
14
口口口口 |--①-|
口口口口 |----|
口口口口 |②---|
口①口② |----|
15
口口①口 |①---|
口口②口 |②---|
口⑤③口 |③---|
口口④口 |④-⑤-|
16
口②③口 |--①-|
口①口口 |--②-|
口口口口 |--③-|
口口口口 |----|
17
口口口口 |①---|
①口口① |----|
②口口② |②---|
口口口口 |----|
18
口口口口 |①--②|
口口①口 |--③-|
口②口口 |----|
口口③口 |----|
19
口口口口 |①---|
口①①口 |----|
口口口口 |----|
口口口口 |----|
20
口口口口 |----|
口口口口 |----|
口口口口 |----|
口口口口 |----|
21
口口口口 |①---|
口口口口 |----|
口①①口 |----|
口口口口 |----|
22
口口口口 |----|
口口口口 |----|
口口口口 |----|
口口口口 |----|
23
口口口口 |①---|
口口口口 |②---|
④③②① |③---|
口口口口 |④---|
24
口口口口 |①---|
口口口口 |②---|
口口口口 |③---|
①②③④ |④---|
25
口口口口 |①---|
口②④口 |②---|
口①③口 |③---|
口口口口 |④---|
26
口口口口 |①---|
口③口② |②---|
口口④① |③--④|
口⑤口口 |--⑤-|
27
口①①口 |----|
②口口② |①---|
口口口口 |----|
口口口口 |--②-|
28
口口口口 |----|
口口口口 |----|
口口口口 |----|
口口口口 |----|
29
口口口口 |①---|
口口口口 |----|
口①①口 |----|
②口口② |--②-|
30
口口口口 |----|
口口口口 |----|
口①①口 |①---|
口口口口 |----|
31
口口②① |①---|
③④口口 |②---|
口口口口 |③---|
口口口口 |④---|
32
口口口口 |①---|
口口口口 |②---|
口口②① |③---|
③④口口 |④---|
33
口口口口 |①---|
口①①口 |--②-|
口②②口 |----|
口③③口 |③---|
34
口②②口 |①---|
口口口口 |----|
①口口① |----|
口口口口 |--②-|
35
口口口口 |----|
口口①口 |①---|
口②口④ |②---|
③口口④ |③-④-|
36
③口口④ |----|
口②口④ |①---|
口口①口 |②---|
口口口口 |③-④-|
37
口口口口 |----|
口口①口 |①---|
口②口④ |②---|
③口口④ |③-④-|
38
③口口④ |----|
口②口④ |①---|
口口①口 |②---|
口口口口 |③-④-|
39
口口①口 |----|
②口口口 |①---|
④口③口 |②---|
④口口口 |③-④-|
40
口口口④ |----|
口③口④ |①---|
口口口② |②---|
口①口口 |③-④-|
41
口口①口 |----|
②口口口 |①---|
④口③口 |②---|
④口口口 |③-④-|
42
口④④口 |----|
口口③口 |①---|
口②口口 |②---|
口口①口 |③-④-|
43
口口口口 |----|
口①口口 |①---|
④口②口 |②---|
④口口③ |③-④-|
44
④口口③ |----|
④口②口 |①---|
口①口口 |②---|
口口口口 |③-④-|
45
口口口口 |----|
口①口口 |①---|
④口②口 |②---|
④口口③ |③-④-|
46
④口口③ |----|
④口②口 |①---|
口①口口 |②---|
口口口口 |③-④-|
47
口①口口 |----|
口口口② |①---|
口③口④ |②---|
口口口④ |③-④-|
48
④口口口 |----|
④口③口 |①---|
②口口口 |②---|
口口①口 |③-④-|
49
口口口口 |----|
口口口口 |----|
②口口② |①---|
口①①口 |--②-|
50
②口口② |----|
①口口① |--①-|
口口口口 |----|
口口口口 |--②-|
51
口口口口 |----|
口口①口 |①---|
口④②口 |②---|
口口③口 |③-④-|
52
口②③口 |--①-|
口①口口 |--②-|
口口口口 |--③-|
口口口口 |----|
53
口口口口 |①---|
口④口① |②---|
口③⑤② |③---|
口口口口 |④-⑤-|
54
口口口口 |--①-|
口口口口 |----|
口口口口 |②---|
口①口② |----|
55
口口①口 |①---|
口口②口 |②---|
口⑤③口 |③---|
口口④口 |④-⑤-|
56
口②③口 |--①-|
口①口口 |--②-|
口口口口 |--③-|
口口口口 |----|
57
口口口口 |①---|
①口口① |----|
②口口② |②---|
口口口口 |----|
58
口口口口 |①---|
口④②口 |②---|
口③①口 |③---|
口口口口 |④---|
59
口口②① |①---|
③④口口 |②---|
口口口口 |③---|
口口口口 |④---|
60
口口口口 |①---|
口口口口 |②---|
口口②① |③---|
③④口口 |④---|
61
口口口口 |①---|
口口④② |②---|
口口③① |③---|
口口口口 |④---|
62
口口口口 |①---|
④②口口 |②---|
③①口口 |③---|
口口口口 |④---|
63
口②口① |①---|
口④口③ |②---|
口口口口 |③---|
口口口口 |④---|
64
口口口口 |①---|
口口口口 |②---|
②口①口 |③---|
④口③口 |④---|
65
口口口口 |①---|
④口②口 |②---|
口③口① |③---|
口口口口 |④---|
66
口口①口 |①---|
口②口口 |②---|
口口③口 |③---|
口④④口 |--④-|
67
口口口口 |----|
口口口口 |----|
口口口口 |----|
口①①口 |--①-|
68
口口口口 |----|
①口口口 |----|
口口口口 |----|
口口口口 |--①-|
69
口口口口 |----|
口①②口 |--①-|
口口口口 |----|
口口口口 |--②-|
70
口口口口 |----|
口口口口 |----|
口口口口 |----|
口①①口 |--①-|
71
口口口口 |----|
口口①口 |①---|
口②口④ |②---|
③口口④ |③-④-|
72
口口口口 |----|
口①口口 |①---|
④口②口 |②---|
④口口③ |③-④-|
73
口口口口 |----|
①口口① |----|
口口口口 |①---|
口口口口 |----|
74
口口口口 |①--②|
口口①口 |--③-|
口②口口
口口③口

口口口口
口④④口
口口口口 |----|
口口口口 |--④-|
75
①口口① |----|
口口口口 |①---|
③口口口 |----|
③口口② |②-③-|
76
④口口③ |----|
④口②口 |①---|
口①口口 |②---|
口口口口 |③-④-|
77
口口口口 |----|
口①口口 |①---|
④口②口 |②---|
④口口③ |③-④-|
78
④口口③ |----|
④口②口 |①---|
口①口口 |②---|
口口口口 |③-④-|
79
口①口口 |----|
口口口② |①---|
口③口④ |②---|
口口口④ |③-④-|
80
④口口口 |----|
④口③口 |①---|
②口口口 |②---|
口口①口 |③-④-|
81
口口口口 |----|
口口口口 |----|
②口口② |①---|
口①①口 |--②-|
82
②口口② |----|
①口口① |--①-|
口口口口 |----|
口口口口 |--②-|
83
口口口口 |----|
口口口口 |----|
口口口口 |----|
口口口口 |----|
84
口口③口 |①---|
口口口② |②---|
口口④口 |③---|
口口口① |④---|
85
口口口口 |①---|
口②③口 |②---|
口④口口 |③---|
口①口口 |④---|
86
口口③口 |①---|
口口口② |②---|
口口④口 |③---|
口口口① |④---|
87
口口口口 |①---|
口②③口 |②---|
口④口口 |③---|
口①口口 |④---|
88
口③口口 |①---|
②口口口 |②---|
口④口口 |③---|
①口口口 |④---|
89
口口口口 |①---|
口③②口 |②---|
口口④口 |③---|
口口①口 |④---|
90
口③口口 |①---|
②口口口 |②---|
口④口口 |③---|
①口口口 |④---|
91
口口口口 |①---|
口③②口 |②---|
口口④口 |③---|
口口①口 |④---|

不確定度: 0

最終更新:2014年07月27日 02:59