アットウィキロゴ

Dispersion Star
ZUKI

ADVANCED

Level: 6
BPM: 180
Notes: 292

1
口口口口 |----|
口口口口 |----|
口口口口 |----|
口口口口 |----|
2
口口口口 |①---|
口①①口 |----|
口①①口 |----|
口口口口 |----|
3
口口口口 |----|
口口口口 |----|
口口口口 |----|
口口口口 |----|
4
口口口口 |----|
口口口口 |----|
口口口口 |----|
口口口口 |----|
5
口口口口 |----|
口口口口 |----|
口口口口 |----|
口口口口 |----|
6
③口口③ |①---|
口②②口 |--②-|
口①①口 |----|
口口口口 |③---|
7
口口口口 |----|
口口口口 |----|
口口口口 |----|
口口口口 |----|
8
①②③口 |①---|
口口口口 |--②-|
①②③口 |----|
口口口口 |③---|
9
口口口口 |----|
口口口口 |----|
口口口口 |----|
口口口口 |----|
10
③口口③ |①---|
口②②口 |--②-|
口①①口 |----|
口口口口 |③---|
11
口口口口 |----|
口口口口 |----|
口口口口 |----|
口口口口 |----|
12
口③②① |①---|
口口口口 |--②-|
口③②① |----|
口口口口 |③---|
13
①口口口 |--①-|
口②②口 |----|
①③③口 |②--③|
口④④口 |--④-|
14
口口口口 |----|
口口口口 |----|
口口口口 |----|
口口口口 |----|
15
口口口口 |①-②-|
口①③口 |③-④-|
口④②口 |--⑤-|
⑥口口⑤ |--⑥-|
16
口口口口 |--①-|
④口口② |②-③-|
③口⑤① |④---|
口口口口 |⑤---|
17
口口口口 |①---|
口④③口 |--②-|
口②口口 |--③-|
口①口口 |④---|
18
口口口口 |----|
口口口口 |----|
口口口口 |----|
口口口口 |----|
19
口口口口 |①-②-|
口①③口 |③-④-|
口④②口 |--⑤-|
⑥口口⑤ |--⑥-|
20
口口口口 |--①-|
④口口② |②-③-|
③口⑤① |④---|
口口口口 |⑤---|
21
口口口口 |①---|
口②口口 |--②-|
口口口口 |----|
口①③口 |③---|
22
②口口② |--①-|
③口①③ |----|
④口口④ |②--③|
口口口口 |--④-|
23
口口口口 |①-②-|
口①③口 |③-④-|
口④②口 |--⑤-|
⑥口口⑤ |--⑥-|
24
口口口口 |--①-|
④口口② |②-③-|
③口⑤① |④---|
口口口口 |⑤---|
25
口口口口 |①---|
口④③口 |--②-|
口②口口 |--③-|
口①口口 |④---|
26
口口口口 |----|
口口口口 |----|
口口口口 |----|
口口口口 |----|
27
口口口口 |①-②-|
口①③口 |③-④-|
口④②口 |--⑤-|
⑥口口⑤ |--⑥-|
28
口口口口 |--①-|
④口口② |②-③-|
③口⑤① |④---|
口口口口 |⑤---|
29
口口口口 |①---|
口②口口 |--②-|
口口口口 |----|
口①③口 |③---|
30
②口口② |--①-|
③口①③ |----|
④口口④ |②--③|
口口口口 |--④-|
31
口口口口 |----|
口口口口 |----|
口口口口 |----|
口口口口 |----|
32
①口②口 |--①-|
口⑤口④ |②-③-|
口③口口 |④-⑤-|
口⑦口⑥ |⑥-⑦-|
33
②口口① |①---|
口③③口 |--②-|
口口口口 |----|
口口口口 |③---|
34
口口口口 |----|
口口口口 |----|
口口口口 |----|
口口口口 |----|
35
口口口口 |①---|
口口口口 |----|
口①①口 |----|
口口口口 |----|
36
①口②口 |--①-|
口⑤口④ |②-③-|
口③口口 |④-⑤-|
口⑦口⑥ |⑥-⑦-|
37
②口口① |①---|
口③③口 |--②-|
口口口口 |----|
口口口口 |③---|
38
口口口口 |----|
口口口口 |----|
口口口口 |----|
口口口口 |----|
39
口口口口 |①---|
口口口口 |----|
口①①口 |----|
口口口口 |----|
40
①口②口 |--①-|
口⑤口④ |②-③-|
口③口口 |④-⑤-|
口⑦口⑥ |⑥-⑦-|
41
②口口① |①---|
口③③口 |--②-|
口口口口 |----|
口口口口 |③---|
42
口口口口 |--①-|
①口口② |②-③-|
③口口口 |④-⑤-|
⑦⑤④⑥ |⑥-⑦-|
43
口口口口 |①---|
口口口口 |----|
口①①口 |----|
口口口口 |----|
44
①口②口 |--①-|
口⑤口④ |②-③-|
口③口口 |④-⑤-|
口⑦口⑥ |⑥-⑦-|
45
②口③① |①---|
口口口口 |--②-|
②口③① |----|
口口口口 |③---|
46
口①口口 |--①-|
②口口② |----|
口①口口 |②---|
口口口口 |----|
47
口口口口 |----|
口口口口 |----|
口口口口 |----|
口口口口 |----|
48
③口口③ |①---|
口②②口 |--②-|
口①①口 |----|
口口口口 |③---|
49
口口口口 |----|
口①②口 |①-②-|
口③④口 |③-④-|
口⑤⑥口 |⑤-⑥-|
50
①②③口 |①---|
口口口口 |--②-|
①②③口 |----|
口口口口 |③---|
51
口口口口 |----|
口口口口 |①-②-|
⑤口口⑥ |③-④-|
①③④② |⑤-⑥-|
52
③口口③ |①---|
口②②口 |--②-|
口①①口 |----|
口口口口 |③---|
53
口口口口 |----|
口②①口 |①-②-|
口④③口 |③-④-|
口⑥⑤口 |⑤-⑥-|
54
口③②① |①---|
口口口口 |--②-|
口③②① |----|
口口口口 |③---|
55
口⑧⑦口 |①-②-|
⑥口口⑤ |③-④-|
④口口③ |⑤-⑥-|
口②①口 |⑦-⑧-|
56
③口口③ |①---|
口②②口 |--②-|
口①①口 |----|
口口口口 |③---|
57
口口口口 |----|
口①②口 |①-②-|
口③④口 |③-④-|
口⑤⑥口 |⑤-⑥-|
58
①②③口 |①---|
口口口口 |--②-|
①②③口 |----|
口口口口 |③---|
59
口口口口 |----|
口口口口 |①-②-|
⑤口口⑥ |③-④-|
①③④② |⑤-⑥-|
60
③口口③ |①---|
口②②口 |--②-|
口①①口 |----|
口口口口 |③---|
61
口口口口 |----|
口②①口 |①-②-|
口④③口 |③-④-|
口⑥⑤口 |⑤-⑥-|
62
口③②① |①---|
口口口口 |--②-|
口③②① |----|
口口口口 |③---|
63
⑧口⑦口 |①-②-|
口⑥口⑤ |③-④-|
④口③口 |⑤-⑥-|
口②口① |⑦-⑧-|
64
口口口口 |①-②-|
②口①口 |③-④-|
口④⑦③ |⑤-⑥-|
口⑥口⑤ |⑦---|
65
①口口② |----|
③口口④ |①-②-|
⑤口口⑥ |③-④-|
口口口口 |⑤-⑥-|
66
口①②口 |①---|
③口口③ |--②-|
③①②③ |----|
口口口口 |③---|

不確定度: 0

最終更新:2014年08月02日 00:27