アットウィキロゴ

7 Colors
kors k feat.吉河順央

EXTREME

Level: 9
BPM: 156
Notes: 645

1
口口口口 |----|
口口口口 |----|
口口口口 |----|
口口口口 |----|
2
口口口口 |①--②|
③口口② |③-④-|
口④④口
口①①口

口⑤⑤口
口⑦⑨口
口口口口 |⑤--⑥|
口⑧⑥口 |⑦⑧⑨-|
3
①口口① |①---|
口口口口 |----|
口口口口 |----|
②③口口 |--②③|
4
口口②⑤ |①-②-|
⑥③口口 |③-④-|
④⑧口口 |⑤-⑥-|
口口①⑦ |⑦-⑧-|
5
口口口口 |①---|
口口③口 |----|
口②口口 |----|
口①①口 |--②③|
6
①②③④ |①②③④|
⑬⑭⑮⑯ |⑤⑥⑦⑧|
⑨⑩⑪⑫ |⑨⑩⑪⑫|
⑤⑥⑦⑧ |⑬⑭⑮⑯|
7
口①①口 |①---|
口口口口 |②---|
②③口口 |③---|
口④口口 |④---|
8
口口①① |①---|
口口口口 |②---|
②口口口
①口口口

口口⑦口
口⑥口口
口③⑤口 |③---|
④口口口 |④⑤⑥⑦|
9
①①口口 |①---|
⑬⑫⑪⑩ |②③④⑤|
⑨⑧⑦⑥ |⑥⑦⑧⑨|
⑤④③② |⑩⑪⑫⑬|
10
③①①③ |①--②|
④口口④ |--③-|
④口口④ |----|
口②②口 |④---|
11
口口①口 |①-②③|
口②③口 |-④⑤-|
口口①口
口④⑤口

⑥口口⑦
口口口口
口⑩⑩口 |⑥⑦-⑧|
⑧口口⑨ |⑨-⑩-|
12
口⑥⑤口 |①②③④|
①②③④ |--⑤⑥|
口口口口
口口口口

⑦口口口
口⑩⑪口
口口口口 |⑦-⑧⑨|
口⑧⑨口 |-⑩⑪-|
13
④口口⑤ |①-②③|
口口口口 |-④⑤-|
口①①口
②口口③

口口口口
口⑥⑦口
口⑩⑩口 |⑥⑦-⑧|
口⑧⑨口 |⑨-⑩-|
14
口①口口 |①②③④|
口⑥⑥② |⑤-⑥-|
③口口口
⑤口口④

⑦口口⑦
⑨口口⑧
口口口⑩ |⑦---|
⑪口口口 |⑧⑨⑩⑪|
15
口口①口 |①-②③|
口②③口 |-④⑤-|
口口①口
口④⑤口

⑥口口⑦
口口口口
口⑩⑩口 |⑥⑦-⑧|
⑧口口⑨ |⑨-⑩-|
16
口⑥⑤口 |①②③④|
①②③④ |--⑤⑥|
口口口口
口口口口

⑦口口口
口⑩⑪口
口口口口 |⑦-⑧⑨|
口⑧⑨口 |-⑩⑪-|
17
④口口⑤ |①-②③|
口口口口 |-④⑤-|
口①①口
②口口③

口口口口
口⑥⑦口
口⑩⑩口 |⑥⑦-⑧|
口⑧⑨口 |⑨-⑩-|
18
口①⑥口 |①②③④|
口⑦口② |⑤-⑥⑦|
③口口口
⑤口口④

口口口口
口口口口
⑫⑪⑪⑧ |⑧⑨⑩-|
口⑨⑩口 |⑪-⑫-|
19
口②⑤④ |①-②-|
①③③口 |③-④⑤|
口口口口 |⑥---|
口⑥⑦⑧ |⑦-⑧-|
20
④⑤口口 |①-②-|
口口②口 |③-④⑤|
口③③①
口口口口

口口口口
口口口口
口口口⑧ |⑥---|
口⑦⑥口 |⑦-⑧-|
21
口⑤②口 |①-②-|
④口⑦① |③-④⑤|
口⑧③口 |⑥-⑦-|
口口⑨⑥ |⑧-⑨-|
22
②口口③ |①-②-|
口④⑤口 |③-④-|
②口①③ |⑤---|
口口⑥口 |⑥---|
23
口口⑤④ |①-②-|
口③口口 |③-④⑤|
②⑧口口 |⑥---|
①⑥⑦口 |⑦-⑧-|
24
④⑤口口 |①-②-|
⑧口③口 |③-④⑤|
口口口② |⑥---|
口⑦⑥① |⑦-⑧-|
25
口口口口 |①-②-|
口口③口 |③-④-|
②④口①
口口口口

口⑥⑦口
⑥⑤口⑦
⑦口⑤⑥ |⑤---|
口⑦⑥口 |⑥-⑦-|
26
口口口口 |①---|
口⑥⑤口 |②---|
口④③口 |③-④-|
①口口② |⑤-⑥-|
27
②②①① |①---|
⑤口口⑤ |②-③-|
口④④口 |--④-|
③③口口 |--⑤-|
28
口口口口 |①---|
口④⑦口 |②-③-|
口口⑥③ |④-⑤-|
②⑤口① |⑥-⑦-|
29
①①②② |①---|
口⑤⑤口 |②-③-|
④⑤⑤④ |--④-|
口口③③ |--⑤-|
30
口③③口 |--①-|
②⑥口口 |②-③-|
口口口口 |④---|
⑤①口④ |⑤-⑥-|
31
④⑤口口 |①-②-|
口口③口 |③-④⑤|
口②①⑧ |⑥---|
口⑦⑥口 |⑦-⑧-|
32
⑨口⑤④ |①-②-|
③⑨口口 |③-④⑤|
口②⑦⑧ |⑥-⑦-|
①⑥⑧⑦ |⑧-⑨-|
33
口①③③ |①---|
①⑤⑤口 |②-③-|
口④④口 |--④-|
②口口口 |--⑤-|
34
⑬⑭⑮⑯ |①②③④|
⑨⑩⑪⑫ |⑤⑥⑦⑧|
⑤⑥⑦⑧ |⑨⑩⑪⑫|
①②③④ |⑬⑭⑮⑯|
35
口口口口 |①---|
口口口口 |----|
口口口口
口①①口

口口口口
口口口口
口口口③ |----|
口②口口 |②-③-|
36
①⑥①口 |①---|
②口④③ |②-③④|
⑤⑦②口 |⑤-⑥-|
⑦口⑧口 |⑦-⑧-|
37
①口口① |①-②-|
③⑧②⑧ |③-④⑤|
⑥口⑤④ |⑥---|
⑦口⑦③ |⑦-⑧-|
38
①口①⑥ |①---|
②口⑦口 |②-③④|
⑤口④③ |⑤-⑥-|
⑦⑧口② |⑦-⑧-|
39
①口③口 |①-②-|
③⑨⑩② |③-④⑤|
⑥口⑤④ |⑥---|
⑦口①⑧ |⑦⑧⑨⑩|
40
①口②① |①---|
②口口⑥ |②-③④|
⑤⑦④③ |⑤-⑥-|
⑦口口⑧ |⑦-⑧-|
41
①⑤⑤④ |①-②-|
③口③口 |③-④-|
⑤⑥⑥② |⑤---|
⑥口①口 |⑥---|
42
①口口口 |①---|
②口口口 |②---|
口口口口
口①①口

口口口口
口口口口
③口口口 |③---|
④⑤⑤④ |④-⑤-|
43
①口口① |①--②|
③口②④ |③-④-|
口口④②
口口口口

口口口口
口口口口
⑤口口⑦ |⑤---|
口⑥口口 |⑥-⑦-|
44
①⑤①③ |①---|
②口口口 |②--③|
④⑥口口 |④-⑤-|
⑥口⑦② |⑥-⑦-|
45
①口口口 |①-②-|
③口②① |③-④⑤|
口口⑤④
口口口③

口口口口
口⑧口⑧
⑥口口口 |⑥---|
⑦口⑦口 |⑦-⑧-|
46
①口①⑥ |①---|
②口⑦口 |②-③④|
⑤口④③ |⑤-⑥-|
⑦⑧口② |⑦-⑧-|
47
①口③口 |①-②-|
③⑨⑩② |③-④⑤|
⑥口⑤④ |⑥---|
⑦口①⑧ |⑦⑧⑨⑩|
48
①口②① |①---|
②口口⑥ |②-③④|
⑤⑦④③ |⑤-⑥-|
⑦口口⑧ |⑦-⑧-|
49
①口口④ |①-②-|
③口③口 |③-④-|
口口口②
口口①口

口⑤⑤口
口口口口
⑤口口口 |⑤---|
⑥⑥⑥口 |⑥---|
50
①口口口 |①---|
②①①口 |②---|
③④⑤口 |③---|
口⑥⑦口 |④⑤⑥⑦|
51
①①②② |①--②|
①⑤⑤② |--③-|
④⑤⑤④ |--④-|
③口口③ |--⑤-|
52
②②④④ |①--②|
口口口口 |----|
口口口口 |③--④|
口①③口 |----|
53
⑨⑨口口 |①-②-|
①③④② |③-④-|
⑨口口口 |⑤⑥⑦⑧|
⑤⑥⑦⑧ |⑨---|
54
口口①口 |①-②③|
口②③口 |-④⑤-|
口口①口
口④⑤口

⑥口口⑦
口口口口
口⑩⑩口 |⑥⑦-⑧|
⑧口口⑨ |⑨-⑩-|
55
口⑥⑤口 |①②③④|
①②③④ |--⑤⑥|
口口口口
口口口口

⑦口口口
口⑩⑪口
口口口口 |⑦-⑧⑨|
口⑧⑨口 |-⑩⑪-|
56
④口口⑤ |①-②③|
口口口口 |-④⑤-|
口①①口
②口口③

口口口口
口⑥⑦口
口⑩⑩口 |⑥⑦-⑧|
口⑧⑨口 |⑨-⑩-|
57
口①口口 |①②③④|
口⑥⑥② |⑤-⑥-|
③口口口
⑤口口④

⑦口口⑦
⑨口口⑧
口口口⑩ |⑦---|
⑪口口口 |⑧⑨⑩⑪|
58
口口①口 |①-②③|
口②③口 |-④⑤-|
口口①口
口④⑤口

⑥口口⑦
口口口口
口⑩⑩口 |⑥⑦-⑧|
⑧口口⑨ |⑨-⑩-|
59
口⑥⑤口 |①②③④|
①②③④ |--⑤⑥|
口口口口
口口口口

⑦口口口
口⑩⑪口
口口口口 |⑦-⑧⑨|
口⑧⑨口 |-⑩⑪-|
60
④口口⑤ |①-②③|
口口口口 |-④⑤-|
口①①口
②口口③

口口口口
口⑥⑦口
口⑩⑩口 |⑥⑦-⑧|
口⑧⑨口 |⑨-⑩-|
61
口①⑥口 |①②③④|
口⑦口② |⑤-⑥⑦|
③口口口
⑤口口④

口口口口
⑫口口⑫
口⑪⑪⑧ |⑧⑨⑩-|
口⑨⑩口 |⑪-⑫-|
62
①口口① |①---|
口②③⑤ |②---|
⑥④口口 |③---|
口口口口 |④-⑤⑥|
63
⑧口⑤⑧ |①-②-|
⑧④口⑧ |③-④-|
口⑦③口 |⑤-⑥⑦|
口②⑥① |⑧---|

不確定度: 0

最終更新:2014年12月12日 00:15