アットウィキロゴ

Boom! Boom! Miracle Emotion
ひろしま MAPLE★S

ADVANCED

Level: 7
BPM: 156
Notes: 412

1
口口①② |----|
口口口口 |----|
口口口口 |--①-|
口口口口 |--②-|
2
口①口口 |--①-|
⑤③⑥④ |②-③-|
口口口口 |--④-|
口②口口 |⑤-⑥-|
3
①⑥⑥口 |--①-|
口⑤⑤口 |②-③-|
口口③口 |④-⑤-|
口④口② |--⑥-|
4
口口口口 |--①-|
④口口① |②-③-|
②⑥③⑤ |--④-|
口口口口 |⑤-⑥-|
5
⑧⑦⑥⑤ |①-②-|
口口口口 |③-④-|
口口口口 |⑤-⑥-|
①②③④ |⑦-⑧-|
6
口口口口 |----|
①口口② |①-②-|
口④③口 |----|
口口口口 |③-④-|
7
②②口口 |---①|
口①口口 |--②-|
口口③口 |---③|
口口④④ |--④-|
8
口口②② |---①|
口口①口 |--②-|
口③口口 |---③|
④④口口 |--④-|
9
口⑤⑥口 |①-②-|
④③②① |③-④-|
口口口口 |--⑤-|
口口口口 |--⑥-|
10
口口口口 |①---|
口②口口 |②-③-|
③口①⑤ |--④-|
口④⑤口 |--⑤-|
11
口①②口 |--①-|
①④口② |--②-|
口③③口 |--③-|
口口口口 |--④-|
12
⑤②②⑥ |①---|
①口③④ |②-③-|
口口口口 |④---|
口口口口 |⑤-⑥-|
13
口口口口 |--①-|
口口口口 |②---|
①口口② |----|
口口口口 |----|
14
口口口④ |①---|
口③口口 |②-③-|
⑤⑤②口 |--④-|
①口口口 |--⑤-|
15
②②口口 |--①-|
口口①① |--②-|
口④口口 |--③-|
口口③③ |--④-|
16
口口②口 |①---|
口③口① |②---|
口口口口 |③---|
口口口口 |----|
17
口③口口 |--①-|
④⑤口口 |②---|
口①②口 |③-④-|
口口口口 |--⑤-|
18
口口口① |--①-|
口口④口 |--②-|
口口④口 |--③-|
口②口③ |--④-|
19
①口口口 |--①-|
口④口口 |--②-|
口④口口 |--③-|
③口②口 |--④-|
20
口口②② |--①-|
口④④口 |--②-|
口③①口 |--③-|
口口口口 |--④-|
21
口⑥⑤口 |①-②-|
口⑤⑥口 |③-④-|
①口口④ |--⑤-|
口②③口 |--⑥-|
22
口口口口 |----|
口口③口 |----|
口口口② |--①-|
口口口① |②-③-|
23
口②①口 |--①-|
③口口口 |②-③-|
⑥④口口 |④---|
⑤口口口 |⑤-⑥-|
24
口⑤②⑤ |--①-|
口①口③ |②-③-|
④口④口 |--④-|
口口口口 |--⑤-|
25
口口口口 |----|
口②①口 |----|
口①②口 |--①-|
口口口口 |--②-|
26
④口⑤口 |--①-|
③口口⑥ |②-③-|
②口口口 |④---|
口①口口 |⑤-⑥-|
27
口③口口 |--①-|
④⑥②口 |②-③-|
口⑤①口 |④---|
口口口口 |⑤-⑥-|
28
口口口口 |----|
口口口口 |①---|
①口口② |----|
口口口口 |②---|
29
①口口① |----|
口口⑤口 |①--②|
②③④② |--③-|
口口口口 |④-⑤-|
30
口口⑤口 |--①-|
口⑥口⑤ |②-③-|
①⑥口④ |④---|
①②③④ |⑤-⑥-|
31
口②④口 |--①-|
②③①⑤ |②---|
口口①口 |--③-|
口口口口 |④-⑤-|
32
②②口口 |①---|
口口口口 |②-③-|
口口①口
口③口口

口口口口
口⑤口口
④口⑥⑤ |④---|
口口口⑤ |⑤-⑥-|
33
口口③口 |--①-|
口④①口 |②-③④|
②④口口 |--⑤-|
②⑤⑥⑦ |⑥-⑦-|
34
口②口口 |--①-|
口口①口 |②---|
口口口口
口口口口

口口口口
口④⑤口
口③口口 |--③-|
口口口口 |④-⑤-|
35
⑥口口⑥ |--①-|
⑥④⑤⑥ |②---|
③口①② |③-④-|
③口口② |⑤-⑥-|
36
口口口口 |----|
口口口口 |①---|
①口口① |----|
口②②口 |②---|
37
口口口口 |----|
口③③口 |①---|
①①②② |②---|
口口口口 |③---|
38
口口口口 |①---|
口口口口 |----|
④②②③ |②---|
①②②① |③-④-|
39
④口③口 |①-②-|
①①口② |③-④-|
口口⑤⑤ |⑤---|
口口口口 |----|
40
口⑤①口 |①-②-|
口②⑥口 |③-④-|
③口口⑦ |⑤---|
口④口口 |⑥-⑦-|
41
②③④⑤ |--①-|
口口口口 |②---|
口③口口 |③---|
口口①口 |④-⑤-|
42
口口口口 |①---|
口口口口 |----|
③口口口 |----|
②口①① |②-③-|
43
口②口口 |--①-|
口①④③ |②-③-|
⑥⑤口口 |④---|
口口口口 |⑤-⑥-|
44
①口口① |--①-|
口②②口 |②---|
口口口口
口口口口

⑥口口口
⑤口口口
口④④口 |③-④-|
③口口③ |⑤-⑥-|
45
口口②口 |--①-|
口①口③ |②-③-|
口口口口 |----|
口口口口 |----|
46
口口口口 |①--②|
口口③③ |-③--|
①①②口
口口②口

口④口口
⑦④口口
⑥口口口 |④-⑤-|
⑤口口口 |⑥-⑦-|
47
口口②② |①---|
口口①① |②---|
④④⑥⑥ |③-④-|
③③⑤⑤ |⑤-⑥-|
48
②③③① |--①-|
②⑤③① |②---|
口口④口 |③---|
口口口口 |④-⑤-|
49
①口口② |--①-|
①口口② |②-③-|
③口口口
③口口口

口口口口
⑥口口口
口④口⑥ |--④-|
口口⑤口 |⑤-⑥-|
50
③③③③ |--①-|
口②②① |②---|
①⑤④口 |③---|
口口口口 |④-⑤-|
51
⑥⑥④④ |①---|
①①②② |②---|
③口口⑤ |③-④-|
③口口⑤ |⑤-⑥-|
52
④口口③ |--①-|
①口口② |②---|
口①②⑤ |③---|
③口口口 |④-⑤-|
53
口口口口 |--①-|
口口口口 |②---|
①③③⑤ |③---|
④口口② |④-⑤-|
54
口⑤⑤② |--①-|
①⑤⑤口 |②---|
口④④口 |③-④-|
口③③口 |--⑤-|
55
口口口口 |----|
①口口口 |----|
口口①口 |----|
口口口口 |--①-|
56
口口口口 |--①-|
口口③② |②---|
③②口口 |----|
③①①口 |--③-|
57
口口口口 |--①-|
口②口口 |②---|
③①①② |----|
口③口② |--③-|
58
⑤⑤④④ |--①-|
③口口① |②-③-|
口口口② |④---|
口口②口 |⑤---|
59
口口口口 |①---|
口口口口 |----|
①①①①
口口口口

口口口口
②口口口
②口口口 |----|
口口口口 |--②-|
60
口口口口 |--①-|
口①①② |②---|
口口口②
口口口口

口口口口
口③口口
口口③口 |----|
③口口口 |--③-|
61
口口口口 |--①-|
口口②口 |②---|
口②口口
口①①②

口口口口
口口口口
③口口口 |----|
口口④口 |③-④-|
62
⑤②口口 |--①-|
口⑤④① |②---|
口③⑤口 |③-④-|
口口口⑤ |--⑤-|

不確定度: 0

最終更新:2014年12月11日 22:16