アットウィキロゴ

アガット
Bazole

EXTREME

Level: 10
BPM: 200
Notes: 821

1
口口口口 |----|
口口口口 |----|
口口口口 |----|
口口口口 |----|
2
①②③④ |----|
口口口| |----|
口口口| |①-②-|
口口口∧ |③-④-|
3
⑤口口口 |--①-|
②④口口 |②---|
口口口口 |③-④-|
①③口口 |--⑤-|
4
口①口③ |①-②-|
口口口口 |③---|
②③口口
口口口口

∨口口口
|口口口
|口口口 |④-⑤-|
⑦⑥⑤④ |⑥-⑦-|
5
口口④② |--①-|
口口口⑤ |②---|
口口③① |③-④-|
口口口口 |--⑤-|
6
口口口口 |①-②-|
口口①口 |③---|
口口口口
③口③②

口④⑤口
口⑥⑦口
口口口口 |④-⑤-|
口口口口 |⑥-⑦-|
7
口⑦⑧< |--①-|
口口口口 |②---|
口⑤⑥口 |③④⑤⑥|
①③④② |⑦-⑧-|
8
口口①口 |--①-|
②③④⑤ |②③④⑤|
口口口口
口口口口

∨口口∨
|口口|
|⑦口| |⑥-⑦-|
⑨⑥⑧⑨ |⑧-⑨-|
9
口∨∨口 |----|
口①①口 |----|
口①①口 |----|
①口口① |--①-|
10
口口口口 |----|
口口口口 |----|
口口口口 |----|
口口口口 |----|
11
口口口口 |----|
口①①口 |----|
口口口口 |----|
口口口口 |--①-|
12
②②⑤⑤ |①---|
口口④④ |②---|
口口③③ |--③-|
①①①① |④-⑤-|
13
②②口口 |--①-|
口⑤④口 |--②-|
口⑤④③ |③-④-|
①①口③ |⑤---|
14
②②口口 |①---|
口⑤④③ |②---|
口⑤④③ |--③-|
①①口口 |④-⑤-|
15
口口②② |--①-|
③⑤口④ |--②-|
③⑤口④ |③-④-|
口口①① |⑤---|
16
口②②口 |①---|
口④③⑤ |②---|
口④③⑤ |--③-|
口①①口 |④-⑤-|
17
②口口② |--①-|
③⑤④口 |--②-|
③⑤④口 |③-④-|
①口口① |⑤---|
18
口②②口 |①---|
⑤口口⑤ |②---|
④口口④ |--③-|
③①①③ |④-⑤-|
19
口②②口 |--①-|
口③④⑤ |--②-|
口③④⑤ |③-④-|
口①①口 |⑤---|
20
①口②② |①---|
|③④⑤ |②---|
|③④⑤ |--③-|
∧口①① |④-⑤-|
21
口③②② |--①-|
口③④口 |--②-|
口⑤④口 |③-④-|
口⑤①① |⑤---|
22
口口②② |①---|
口③④⑤ |②---|
口③④⑤ |--③-|
口口①① |④-⑤-|
23
口口②② |--①-|
⑥口④⑤ |--②-|
⑦③④⑤ |③-④-|
口③①① |⑤-⑥⑦|
24
①①②② |①---|
口|口口 |②---|
口|口口
口∧①①

口口口口
口③④⑤
口③④⑤ |--③-|
口口口口 |④-⑤-|
25
口口①① |--①-|
口③④⑤ |--②-|
口③④⑤ |③-④-|
口口②② |⑤---|
26
②①①口 |①---|
②口|口 |②---|
①口|口
①口∧口

口口⑤口
口口口口
口③④⑤ |--③-|
口③④⑤ |④-⑤-|
27
口①口① |----①-|
口口①口 |----|
口口口口 |----|
口口口口 |----|
28
⑥⑦口口 |①-②③|
口⑧③② |④-⑤-|
⑨口④口 |--⑥⑦|
①口口⑤ |⑧-⑨-|
29
⑩口②① |--①②|
口⑨③口 |③-④-|
口⑦⑧④ |⑤⑥⑦⑧|
口⑤⑥口 |⑨-⑩-|
30
口口③② |①-②③|
口口④口 |④-⑤-|
口口口⑤
①口口口

口口口口
⑥⑦口口
口⑧口口 |--⑥⑦|
⑨口口口 |⑧-⑨-|
31
口⑥⑥④ |--①②|
口口②① |③-④-|
⑦口口⑦ |⑤-⑥-|
口⑤③⑤ |⑦---|
32
⑥⑦口口 |①-②③|
口⑧③② |④-⑤-|
⑨口④口 |--⑥⑦|
①口口⑤ |⑧-⑨-|
33
⑩口②① |--①②|
口⑨③口 |③-④-|
口⑦⑧④ |⑤⑥⑦⑧|
口⑤⑥口 |⑨-⑩-|
34
口口③② |①-②③|
口口④口 |④-⑤-|
口口口⑤
①口口口

口口口口
⑥⑦口口
口⑧口口 |--⑥⑦|
⑨口口口 |⑧-⑨-|
35
⑦⑤⑥⑧ |--①②|
口口②③ |③-④-|
⑪口①⑫ |⑤⑥⑦⑧|
口⑨⑩④ |⑨⑩⑪⑫|
36
⑥⑦口口 |①-②③|
口⑧③② |④-⑤-|
⑨口④口 |--⑥⑦|
①口口⑤ |⑧-⑨-|
37
⑩口②① |--①②|
口⑨③口 |③-④-|
口⑦⑧④ |⑤⑥⑦⑧|
口⑤⑥口 |⑨-⑩-|
38
口口③② |①-②③|
口口④口 |④-⑤-|
口口口⑤
①口口口

口口口口
⑥⑦口口
口⑧口口 |--⑥⑦|
⑨口口口 |⑧-⑨-|
39
口⑥⑥④ |--①②|
口口②① |③-④-|
⑦口口⑦ |⑤-⑥-|
口⑤③⑤ |⑦---|
40
⑥⑦口口 |①-②③|
口⑧③② |④-⑤-|
⑨口④口 |--⑥⑦|
①口口⑤ |⑧-⑨-|
41
⑩口②① |--①②|
口⑨③口 |③-④-|
口⑦⑧④ |⑤⑥⑦⑧|
口⑤⑥口 |⑨-⑩-|
42
口口③② |①-②③|
口口④口 |④-⑤-|
①口口⑤
①口口口

口口口口
⑦⑧口口
口⑨口口 |⑥-⑦⑧|
⑩口⑥⑥ |⑨-⑩-|
43
口口口口 |①-②③|
口口③④ |④-⑤-|
①口②口
口口口⑤

⑧⑥⑦⑨
口口口口
⑫口口⑬ |⑥⑦⑧⑨|
口⑩⑪口 |⑩⑪⑫⑬|
44
口∨∨口 |①---|
口||口
口①①口
口口口口

口⑨⑩口
口③④⑤ |②-③④|
口口口口 |⑤-⑥⑦|
⑥⑦⑧② |⑧-⑨⑩|
45
②口口① |①--②|
④⑧口⑤ |③-④-|
⑥①①⑦ |⑤-⑥-|
口口口③ |⑦-⑧-|
46
②①④③ |①②③④|
>⑨⑤口 |⑤-⑥-|
口⑧口口 |--⑦-|
口⑦⑥口 |⑧-⑨-|
47
口口①⑦ |--①②|
口⑦②⑥ |③④--|
口口③⑤ |⑤--⑥|
口口④口 |--⑦-|
48
口口口口 |①-②-|
口口口口
口口②口
①口口口

口口④口
③口|口 |③-④-|
口口|口
口口∧口

口口⑤口
口⑦口口
口口口⑥ |--⑤-|
口⑤口口 |⑥-⑦-|
49
口口口① |①---|
口口口|
口口口|
口口口∧

口口口②
口口口口 |②-③-|
口口③口
②口口口

口口⑤口
④口|口
口口|口 |④-⑤-|
口口∧口

口口⑥口
口口口口
口口口口
口⑥口口 |--⑥-|
50
口口口口 |①-②-|
口②口口
口口口①
口口口口

口④口③
口口⑤| |③-④⑤|
口口口|
口口口∧

⑩口口口
⑪口口⑥
⑫⑦口口 |⑥-⑦⑧|
口口⑧⑨ |⑨--⑩⑪⑫|
51
口⑤④⑧ |①-②-|
口③⑥口 |③-④-|
口⑦③口 |⑤-⑥-|
①②⑧口 |⑦-⑧-|
52
⑦⑧④口 |①-②-|
③口口口 |③-④-|
口口②⑥ |--⑤-|
①⑤口① |⑥-⑦⑧|
53
⑥口口⑦ |①--②|
⑥①⑤⑤ |--③-|
③口口⑦ |④-⑤-|
④④口② |⑥-⑦-|
54
口⑥⑤口 |①②③④|
口①口口 |⑤⑥⑦-|
口④①口
⑦⑦③②

口口口口
>⑩⑩⑧
⑨口⑩口 |--⑧-|
口口口口 |⑨-⑩-|
55
口口③② |--①-|
口口口口 |②-③-|
口⑥⑦① |④-⑤-|
④口口⑤ |⑥-⑦-|
56
>①⑥② |①---|
口①⑦③ |---②③④|
口口⑧④ |⑤---|
口口口⑤ |---⑥⑦⑧|
57
口②口口 |①---|
③口口⑥ |②-③-|
口口口⑤ |④--⑤|
口口①④ |--⑥-|
58
口口①口 |①-②-|
口①①口 |--③-|
②①②口
②③②③

④⑥⑥④
⑤口口口
口口口⑤ |④---|
口口口口 |⑤-⑥-|
59
③口口口 |①--②|
口②②③ |--③-|
③②②口
①口①③

口口口口
口口口口
口口口⑤ |--④-|
⑥④⑥口 |⑤-⑥-|
60
口①②③ |--①②|
④⑩⑦⑤ |③-④⑤|
⑧⑫⑪⑨ |⑥⑦⑧⑨|
口⑥口⑬ |⑩⑪⑫⑬|
61
⑤④③② |①---②③④⑤|
⑥⑫⑫口 |⑥---|
⑦⑪⑩口 |⑦⑧⑨⑩|
①⑨⑧口 |⑪-⑫-|
62
口⑪⑫口 |--①②|
①口⑩④ |③-④⑤|
⑤⑨⑧② |⑥⑦⑧⑨|
③⑦口⑥ |⑩⑪⑫-|
63
口口⑥① |--①-|
②⑥口口 |②-③-|
口⑤④③ |--④-|
口④⑤口 |⑤-⑥-|
64
①⑪⑪④ |--①②|
⑤口⑧② |③-④⑤|
③⑨口⑥ |⑥⑦⑧⑨|
⑦口⑩口 |⑩-⑪-|
65
③口⑨⑨ |--①-|
口口口② |②-③-|
①④口口 |--④-|
⑧⑦⑥⑤ |⑤⑥⑦⑧⑨---|
66
口⑧⑪⑪ |--①②|
④③⑦① |③-④-|
①⑥②⑤ |⑤⑥⑦⑧|
⑩口⑨口 |⑨⑩⑪-|
67
②口口口 |--①-|
口③口② |②---|
①④②④ |--③-|
⑤③⑤① |④-⑤-|
68
口①②③ |--①②|
④⑩⑦⑤ |③-④⑤|
⑧⑫⑪⑨ |⑥⑦⑧⑨|
口⑥口⑬ |⑩⑪⑫⑬|
69
⑤④③② |①---②③④⑤|
⑥⑫⑫口 |⑥---|
⑦⑪⑩口 |⑦⑧⑨⑩|
①⑨⑧口 |⑪-⑫-|
70
⑪⑦口口 |--①②|
①口口④ |③-④⑤|
⑤口⑧② |⑥-⑦⑧|
③⑨⑩⑥ |⑨⑩⑪-|
71
口口口① |--①②|
口④②⑦ |③---|
⑤口⑥③ |--④⑤|
口⑧⑧⑧ |⑥⑦⑧-|
72
口⑤⑤⑤ |--①②|
②⑥③⑨ |③④⑤-|
⑦①⑧④ |--⑥⑦|
口⑩⑩⑩ |⑧⑨⑩-|
73
⑥⑤⑤⑤ |--①②|
②口③⑦ |③④⑤-|
⑦①⑥④ |--⑥-|
口口口口 |--⑦-|
74
⑦⑧⑧⑧ |--①②|
口⑥①口 |③-④-|
口②⑤口 |--⑤⑥|
③④④④ |⑦-⑧-|
75
口⑦口口 |--①②|
⑤⑥①⑦ |③-④-|
口②⑤⑥ |⑤--⑥|
③④口口 |--⑦-|
76
①口④② |①-②-|
|口③⑧ |③④--|
|⑥⑦⑨ |⑤-⑥⑦|
∧口⑤口 |-⑧⑨-|
77
口②③口 |①-②③|
口⑥⑦⑧ |-④⑤-|
口⑥⑦⑧ |⑥--⑦|
口①⑤④ |--⑧-|
78
口③④② |①-②-|
口口口⑧ |③④--|
口⑥⑦⑨ |⑤-⑥⑦|
口①口⑤ |-⑧⑨-|
79
口口③④ |①-②-|
⑧⑤⑥⑦ |③④--|
口⑤⑥⑦ |⑤--⑥|
口②①口 |--⑦⑧|
80
①①口⑤ |①-②-|
口|⑦⑨ |③④--|
④|⑥⑧ |⑤-⑥⑦|
③∧口② |-⑧⑨-|
81
口口①口 |①-②-|
口⑤⑥⑦ |③④--|
口⑤⑥⑦ |⑤--⑥|
口③④② |--⑦-|
82
口①②① |①-②-|
口⑤⑥| |③④--|
⑨口⑦| |⑤-⑥⑦|
⑧③④∧ |-⑧⑨-|
83
②⑤⑥口 |①-②-|
⑨⑦⑧⑩ |③④--|
⑪①口⑫ |⑤⑥⑦⑧|
口③④口 |⑨⑩⑪⑫|
84
口口口① |①---|
口口口口 |②---|
口①①口
口②②口

⑤口口⑤
口④④口
口口口口 |--③-|
③口口③ |④-⑤-|

不確定度: 0

最終更新:2016年04月11日 03:09