アットウィキロゴ

水月鏡花のコノテーション
日向美ビタースイーツ♪

EXTREME

Level: 8
BPM: 185
Notes: 704

1
口口口口 |----|
口口口口 |----|
口口口口 |----|
口口口口 |----|
2
口口口口 |----|
口口口口 |----|
口口口口 |----|
口口口口 |----|
3
①②口口 |----|
口④口口 |①---|
口口口口 |②---|
口③口口 |③-④-|
4
口口口口 |----|
②口口口 |①---|
①口口口 |②---|
③口口口 |③---|
5
口②口口 |①---|
口口口口 |----|
口①口口 |----|
口口口口 |②---|
6
口口④口 |----|
口口口③ |----|
口口②口 |①-②-|
口口①口 |③-④-|
7
口口③口 |①---|
口口①口 |----|
口口口口 |----|
口口②口 |②-③-|
8
口口口口 |----|
口口口口 |----|
口口①口 |①---|
口口口口 |----|
9
口口口口 |①---|
口口口② |②---|
口口口① |----|
口口口口 |----|
10
口口口口 |----|
口口口口 |----|
口口口口 |----|
口口口口 |----|
11
口①口口 |----|
④②口口 |①---|
口口口口 |②---|
口③口口 |③-④-|
12
口②口口 |----|
口口口口 |①---|
口①口口 |②---|
口③口口 |③---|
13
口②口口 |①---|
口①口口 |----|
口口口口 |----|
口口口口 |②---|
14
口口④口 |----|
口口口③ |----|
口口②口 |①-②-|
口口①口 |③-④-|
15
口口③口 |①---|
口口①口 |----|
口口口口 |----|
口口②口 |②-③-|
16
口口口口 |----|
口口口口 |----|
口口①口 |①---|
口口口口 |----|
17
口口②② |①---|
口口①① |②---|
口口口口 |----|
口口口口 |----|
18
口口口口 |----|
口口口口 |----|
②口口口 |--①-|
口口口① |②---|
19
⑥①①① |①-②-|
③③③⑤ |--③-|
⑤②②② |④---|
④④④⑥ |⑤-⑥-|
20
⑥②④① |--①-|
口口口⑦ |②-③-|
⑤①③② |④-⑤-|
口口口口 |⑥-⑦-|
21
⑤④④④ |①-②-|
②②②⑥ |--③-|
⑥③③③ |④---|
①①①⑤ |⑤-⑥-|
22
口口口口 |--①-|
①④②⑥ |②-③-|
⑦口口口 |④-⑤-|
②③①⑤ |⑥-⑦-|
23
⑤①①① |①-②-|
③③③⑥ |--③-|
⑥②②② |④---|
④④④⑤ |⑤-⑥-|
24
⑤①③② |--①-|
口口口⑦ |②-③-|
⑥②④① |④-⑤-|
口口口口 |⑥-⑦-|
25
⑤④④④ |①-②-|
②②②⑥ |--③-|
⑥③③③ |④---|
①①①⑤ |⑤-⑥-|
26
口口口口 |--①-|
①口②口 |②---|
口口口口 |----|
②口①口 |----|
27
口口口口 |----|
口③④口 |①---|
口口②口 |②---|
口①口口 |③-④-|
28
口口①口 |----|
口②口口 |----|
口口口口 |①---|
口口口口 |②---|
29
口口口口 |①---|
口口②口 |②---|
③④⑤口 |③---|
口①①口 |④-⑤-|
30
口口口口 |----|
口口口口 |----|
口口口口 |----|
口口口口 |----|
31
①口口① |①---|
口②②口 |----|
口口口口 |②---|
口④③口 |③-④-|
32
口口①口 |----|
口口④口 |①---|
②②③口 |②---|
口口口口 |③-④-|
33
口①口口 |①---|
口口口口 |②---|
口口口口
口口②口

⑥⑥③口
口④口口
口口⑤口 |③-④-|
口口口口 |⑤-⑥-|
34
口口⑥⑥ |--①②|
口口⑤⑤ |③-④-|
④口口口 |⑤-⑥-|
口③②① |----|
35
口口口口 |①-②-|
口口口⑧ |③-④-|
⑤⑥⑦④ |⑤-⑥-|
①②③口 |⑦-⑧-|
36
口⑦⑥⑤ |①-②-|
⑧口口口 |③-④-|
口口口④ |⑤-⑥-|
①②③口 |⑦-⑧-|
37
口口口口 |①-②-|
口口口⑧ |③-④-|
⑤⑥⑦④ |⑤-⑥-|
①②③口 |⑦-⑧-|
38
口口口口 |①-②-|
口口口口 |③-④-|
口口口④
①②③口

口口口口
口⑥⑤口
⑦口口口 |⑤-⑥-|
⑧口口口 |⑦-⑧-|
39
口口④⑧ |①-②-|
口⑦口③ |③-④-|
口口②⑥ |⑤-⑥-|
口⑤口① |⑦-⑧-|
40
口⑧④口 |①-②-|
③口⑦口 |③-④-|
口⑥②口 |⑤-⑥-|
①口⑤口 |⑦-⑧-|
41
口口口① |①-②-|
④②口③ |③-④-|
⑤⑧⑧口 |⑤-⑥-|
口⑥⑦口 |⑦-⑧-|
42
⑦①④⑧ |①-②-|
⑦③②⑧ |③-④-|
口口口口 |⑤-⑥-|
⑤⑤⑥⑥ |⑦-⑧-|
43
口①⑧口 |①-②-|
口⑦④口 |③-④-|
③⑤⑥② |⑤-⑥-|
口口口口 |⑦-⑧-|
44
③⑧⑧口 |①-②-|
⑦口④⑦ |③-④-|
⑥口口⑥ |⑤-⑥-|
⑤①②⑤ |⑦-⑧-|
45
⑧口⑧口 |①-②-|
口①④口 |③-④-|
⑦③⑥口 |⑤-⑥-|
口⑤②口 |⑦-⑧-|
46
口①口① |----|
②口②口 |①---|
口③口③ |②---|
口④口④ |③-④-|
47
口⑤⑧④ |①-②-|
口③⑥口 |③-④-|
①口②口 |⑤-⑥-|
口⑦口口 |⑦-⑧-|
48
⑧⑦口⑧ |①-②-|
①⑥⑦口 |③-④-|
口⑤⑥② |⑤-⑥-|
③口⑤④ |⑦-⑧-|
49
口口口口 |①-②-|
①⑥口① |③-④-|
④⑧⑦③ |⑤-⑥-|
②⑧⑦⑤ |⑦-⑧-|
50
口②②口 |----|
①③③① |①---|
口口口口 |②---|
口口口口 |③---|
51
口口口口 |①---|
口③④⑤ |--②-|
②②②② |--③-|
①①①① |④-⑤-|
52
④③②① |①-②-|
⑤⑥⑦⑧ |③-④-|
口口口口 |⑤-⑥-|
口口口口 |⑦-⑧-|
53
口口口口 |①---|
口③④⑤ |--②-|
①①①① |--③-|
②②②② |④-⑤-|
54
④③②① |①-②-|
⑤⑥⑦⑧ |③-④-|
口口口口 |⑤-⑥-|
口口口口 |⑦-⑧-|
55
口口口口 |①---|
口③④⑤ |--②-|
①②②① |--③-|
②①①② |④-⑤-|
56
④③②① |①-②-|
⑤⑥⑦⑧ |③-④-|
口口口口 |⑤-⑥-|
口口口口 |⑦-⑧-|
57
口口⑧口 |①-②-|
口⑦口口 |③-④-|
②③⑥⑤ |⑤-⑥-|
口①④口 |⑦-⑧-|
58
③口⑧④ |①-②-|
口⑦口口 |③-④-|
①口⑥口 |⑤-⑥-|
口⑤口② |⑦-⑧-|
59
口口口口 |①---|
①口口① |②---|
②④⑤② |③---|
③口口③ |④-⑤-|
60
口口⑤⑤ |--①-|
口口③③ |②---|
①④口② |③---|
口口②口 |④-⑤-|
61
口口口口 |--①-|
③口口③ |②---|
口口②② |③---|
④①口④ |④---|
62
口口口口 |①---|
口①①③ |②-③-|
口②③⑤ |--④-|
④口⑤口 |⑤---|
63
①①①① |①---|
口②②口 |②---|
口口口口
口口口口

⑤口口⑤
口口口口
口③③口 |③---|
④口口④ |④-⑤-|
64
口口⑤⑤ |--①-|
口口②口 |②---|
④④口口 |③---|
口①③口 |④-⑤-|
65
口口口口 |--①-|
③③②② |②---|
④口口④ |③---|
口①口口 |④---|
66
⑤⑥口口 |①---|
③③③③ |②-③-|
口①①口 |--④-|
④②口口 |⑤-⑥-|
67
④⑤③② |--①-|
口口口口 |②-③-|
口口口口 |----|
口口口① |④-⑤-|
68
口口②① |----|
口口口口 |①-②-|
口口口口 |----|
口③③口 |③---|
69
口②②口 |①---|
③④④③ |②---|
口①①口 |③---|
口口口口 |④---|
70
④⑤口口 |①---|
②口口② |--②-|
①②②① |--③-|
③①①口 |④-⑤-|
71
④⑤③② |--①-|
口口口口 |②-③-|
口口口口 |----|
口口口① |④-⑤-|
72
口口②① |----|
口口口口 |①-②-|
口口口口 |----|
口③③口 |③---|
73
③口口③ |①---|
口①①口 |②---|
口②②口 |③---|
口④④口 |④---|
74
口口口口 |①---|
①①②② |--②-|
口口③口 |----|
口口口口 |③---|
75
③②①口 |①---|
①③口② |--②-|
②口③① |----|
口①②③ |③---|
76
口口口① |--①-|
口③①② |----|
②①③口 |②---|
①口口口 |③---|
77
③②①口 |①---|
①③口② |--②-|
②口③① |----|
口①②③ |③---|
78
③口口① |--①-|
②口①口 |----|
口①口② |②---|
①口口③ |③---|
79
口①②③ |①---|
②口③① |--②-|
①③口② |----|
③②①口 |③---|
80
①口口口 |--①-|
口①③口 |----|
②③①口 |②---|
口口②① |③---|
81
③②①口 |①---|
①③口② |--②-|
②口③① |----|
口①②③ |③---|
82
口口口① |--①-|
口③①口 |----|
口①口口 |②---|
①口②口 |③---|
83
口⑤①④ |①-②-|
口⑥⑦口 |③-④-|
③⑧④① |⑤-⑥-|
口②口⑦ |⑦-⑧-|
84
口口口口 |①-②-|
①⑥⑦② |③-④-|
④⑧⑤口 |⑤-⑥-|
③口②口 |⑦-⑧-|
85
口⑤①④ |①-②-|
口⑥⑦口 |③-④-|
③口④① |⑤-⑥-|
⑧②口⑦ |⑦-⑧-|
86
口口口口 |①-②-|
③口口② |③-④-|
④①口口
口口②口

口口口口
口⑥⑦口
口⑧⑤口 |⑤-⑥-|
口口口口 |⑦-⑧-|
87
口⑥①④ |①-②-|
口⑤⑦口 |③-④-|
③⑧④① |⑤-⑥-|
口②口⑦ |⑦-⑧-|
88
口⑧⑤口 |①-②-|
①⑦⑦② |③-④-|
④口口口 |⑤-⑥-|
③⑥②口 |⑦-⑧-|
89
⑤⑧④① |①-②-|
⑥口口⑦ |③-④-|
口③①④ |⑤-⑥-|
②口⑦口 |⑦-⑧-|
90
口口口口 |①-②-|
口①②口 |③-④-|
③口口口
口④口②

口⑧⑤口
口⑫口⑨
口⑥⑪口 |⑤⑥⑦⑧|
⑩口⑦口 |⑨⑩⑪⑫|
91
口⑧⑤口 |①-②-|
口口①⑦ |③-④-|
②④口口 |⑤-⑥-|
⑥口口③ |⑦-⑧-|
92
④口⑦口 |①-②-|
⑧口③口 |③-④-|
②⑥口口 |⑤-⑥-|
口口①⑤ |⑦-⑧-|
93
口⑥口③ |①-②-|
口②口口 |③-④-|
口口⑤⑦ |⑤-⑥-|
④⑧①口 |⑦-⑧-|
94
口口⑤口 |①-②-|
②⑧①口 |③-④-|
⑥④口口 |⑤-⑥-|
口口③⑦ |⑦-⑧-|
95
口口口口 |①---|
口口①口 |----|
口口口口 |----|
口口口口 |----|

不確定度: 0

最終更新:2015年03月24日 20:43