アットウィキロゴ

水月鏡花のコノテーション
日向美ビタースイーツ♪

ADVANCED

Level: 6
BPM: 185
Notes: 508

1
口口口口 |----|
口口口口 |----|
口口口口 |----|
口口口口 |----|
2
口口口口 |----|
口口口口 |----|
口口口口 |----|
口口口口 |----|
3
口口①口 |----|
口②口口 |①---|
口④③口 |②---|
口口口口 |③-④-|
4
口口口口 |----|
口口口① |①---|
口口口口 |②---|
③口口② |③---|
5
①①②② |①---|
口口口口 |----|
口口口口 |----|
口口口口 |②---|
6
口口口口 |----|
口②①口 |----|
口④③口 |①-②-|
口口口口 |③-④-|
7
③③①口 |①---|
口口口口 |----|
口口②口 |----|
口口口口 |②-③-|
8
口口口口 |----|
口口口口 |----|
口口口口 |①---|
口①①口 |----|
9
②口口① |①---|
②口口① |②---|
口口口口 |----|
口口口口 |----|
10
口口口口 |----|
口口口口 |----|
口口口口 |----|
口口口口 |----|
11
口①口口 |----|
口口②口 |①---|
口③④口 |②---|
口口口口 |③-④-|
12
口口口口 |----|
①口口口 |①---|
口口口口 |②---|
②口口③ |③---|
13
②②①① |①---|
口口口口 |----|
口口口口 |----|
口口口口 |②---|
14
口口口口 |----|
口①②口 |----|
口③④口 |①-②-|
口口口口 |③-④-|
15
①①③③ |①---|
口口口口 |----|
口②口口 |----|
口口口口 |②-③-|
16
口口口口 |----|
口口口口 |----|
口口口口 |①---|
口①①口 |----|
17
①口口② |①---|
①口口② |②---|
口口口口 |----|
口口口口 |----|
18
口口口口 |----|
口①①口 |----|
口口口口 |----|
口口口口 |①---|
19
①①②② |①-②-|
⑤⑤⑥⑥ |--③-|
③③④④ |④---|
口口口口 |⑤-⑥-|
20
口口口口 |--①-|
口口口口 |②---|
口口口口 |----|
①①②② |----|
21
口口口口 |①-②-|
③③④④ |--③-|
⑤⑤⑥⑥ |④---|
①①②② |⑤-⑥-|
22
①①②② |--①-|
口口口口 |②---|
口口口口 |----|
口口口口 |----|
23
①①④④ |①-②-|
⑤⑤口口 |--③-|
③③②② |④---|
口口⑥⑥ |⑤-⑥-|
24
口口口口 |--①-|
口口②② |②---|
口口口口 |----|
①①口口 |----|
25
①①④④ |①-②-|
⑤⑤口口 |--③-|
③③②② |④---|
口口⑥⑥ |⑤-⑥-|
26
口口口口 |--①-|
口口②② |②---|
口口口口 |----|
①①口口 |----|
27
口口口口 |----|
口口口口 |①---|
口④③口 |②---|
①②口口 |③-④-|
28
口口口① |----|
口口②口 |----|
口口口口 |①---|
口口口口 |②---|
29
口口⑤⑤ |①---|
口④口口 |②---|
口①③口 |③---|
②口口口 |④-⑤-|
30
口口口口 |----|
口口口口 |----|
口口口口 |----|
口口口口 |----|
31
口①①口 |①---|
口④③口 |----|
口②②口 |②---|
口口口口 |③-④-|
32
口口口① |----|
②口口口 |①---|
口④③口 |②---|
口口口口 |③-④-|
33
口口口口 |①---|
口口①口 |②---|
口⑤④口 |③---|
③口②口 |④-⑤-|
34
④④③③ |--①-|
口②①口 |②---|
口口口口 |③-④-|
口口口口 |----|
35
口口口口 |①---|
①②口① |②---|
口口③口 |③---|
口④⑤口 |④-⑤-|
36
口①口口 |----|
口②口口 |----|
口口口口 |①---|
口口口口 |②---|
37
③口口口 |①---|
口⑤④口 |②---|
口口口② |③---|
口口口① |④-⑤-|
38
口②①口 |----|
口口口口 |----|
口口口口 |----|
口口口口 |①-②-|
39
口口口口 |----|
口口口口 |----|
口①②口 |----|
口口口口 |①-②-|
40
口口口口 |----|
口口口口 |----|
口②②口 |①---|
口①①口 |②---|
41
③口口③ |①---|
口①①口 |----|
②口口② |②---|
口口口口 |--③-|
42
口口口口 |----|
①②③④ |----|
口口口口 |①-②-|
口口口口 |③-④-|
43
③①口口 |----|
口口口口 |①---|
口②口口 |②---|
口口口口 |③---|
44
口口口口 |①---|
口口口口 |②---|
①口口口
口口②口

口口口口
口口口口
⑥⑤④③ |③-④-|
口口口口 |⑤-⑥-|
45
口口④④ |----|
口口口② |①---|
口口口口 |②---|
口③口① |③-④-|
46
口口口口 |----|
①①口口 |①---|
口口②② |②---|
口③④口 |③-④-|
47
③①口口 |----|
口口口口 |①---|
口②口口 |②---|
口口口口 |③---|
48
口口口口 |①---|
口口口口 |②---|
①口口口
口口②口

口口口口
口口口口
⑥⑤④③ |③-④-|
口口口口 |⑤-⑥-|
49
口口口口 |①---|
口①①③ |②---|
口④⑤口 |③---|
口口口② |④-⑤-|
50
①口口① |----|
口②②口 |①---|
③口口③ |②---|
口口口口 |③---|
51
口口口口 |①---|
口口②① |--②-|
口③④口 |--③-|
口口②① |④---|
52
口口口口 |----|
口口口口 |----|
口口口口 |----|
口口口口 |----|
53
口口口口 |①---|
①②口口 |--②-|
口④③口 |--③-|
①②口口 |④---|
54
口口口口 |----|
口口口口 |----|
口口口口 |----|
口口口口 |----|
55
口口口口 |①---|
口口②① |--②-|
口③④口 |--③-|
口口②① |④---|
56
口口口口 |----|
口②①口 |----|
口口口口 |①---|
口口口口 |②---|
57
③①②口 |①---|
口口口口 |--②-|
口口口口 |----|
口②①③ |③---|
58
口口口① |--①-|
③口口③ |----|
口②②口 |②---|
①口口口 |③---|
59
①①①① |①---|
口口②口 |②---|
口③口口 |③---|
口⑤④口 |④-⑤-|
60
口③④② |----|
口口②① |①---|
口口①口 |②---|
口口口口 |③-④-|
61
口口口口 |----|
②口口③ |①---|
②口口③ |②---|
①口口① |③---|
62
口口口口 |①---|
口口口口 |--②-|
口①②口 |----|
③②①③ |③---|
63
①①①① |①---|
口口②口 |②---|
口③口口 |③---|
口⑤④口 |④-⑤-|
64
口③④② |----|
口口②① |①---|
口口①口 |②---|
口口口口 |③-④-|
65
口口口口 |----|
口①口① |①---|
②口②口 |②---|
口③口③ |③---|
66
口口口口 |①---|
口②①口 |--②-|
口①②口 |--③-|
③④⑤口 |④-⑤-|
67
口③②① |--①-|
④口口口 |②-③-|
⑤口口口 |----|
口口口口 |④-⑤-|
68
口口口口 |----|
口③③② |①-②-|
口口口① |----|
口口口口 |③---|
69
③①②④ |①---|
口口口口 |②---|
口口口口 |③---|
④②①③ |④---|
70
口口口口 |①---|
口②②口 |--②-|
口①①口 |--③-|
③④⑤口 |④-⑤-|
71
口③②① |--①-|
④口口口 |②-③-|
⑤口口口 |----|
口口口口 |④-⑤-|
72
口口口口 |----|
口③③② |①-②-|
口口口① |----|
口口口口 |③---|
73
③①②④ |①---|
口口口口 |②---|
口口口口 |③---|
④②①③ |④---|
74
口口口口 |①---|
口②②口 |--②-|
口①①口 |----|
口口口口 |----|
75
①①②② |①---|
口③口口 |--②-|
口口③口 |----|
口口口口 |③---|
76
②口口② |--①-|
口口①口 |----|
口①口口 |②---|
③口口③ |③---|
77
口②①口 |①---|
口②①口 |--②-|
口口③③ |----|
口口口口 |③---|
78
②口口② |--①-|
口口口口 |----|
①①口口 |②---|
③口口③ |③---|
79
口口口口 |①---|
③①③① |--②-|
②口②口 |----|
口口口口 |③---|
80
②口口② |--①-|
口口口口 |----|
口①口① |②---|
③口口③ |③---|
81
口口口口 |①---|
口②①③ |--②-|
③②①口 |----|
口口口口 |③---|
82
②口口② |--①-|
①口口口 |----|
口口口① |②---|
③口口③ |③---|
83
⑤⑤口④ |①---|
①①口口 |②-③-|
③③口② |--④-|
口口口口 |⑤---|
84
口口口口 |①-②-|
口④③口 |----|
口③④口 |③---|
②②口① |④---|
85
口口①① |①---|
④口⑤⑤ |②-③-|
口口口口 |--④-|
②口③③ |⑤---|
86
③口口③ |①-②-|
口口口口 |----|
①口②② |③---|
④口口④ |④---|
87
⑤⑤口④ |①---|
①①口口 |②-③-|
③③口② |--④-|
口口口口 |⑤---|
88
口口口口 |①-②-|
口④③口 |----|
口③④口 |③---|
②②口① |④---|
89
口口①① |①---|
④口⑤⑤ |②-③-|
口口口口 |--④-|
②口③③ |⑤---|
90
③口口③ |①-②-|
口口口口 |----|
①口②② |③---|
④口口④ |④---|
91
口口口口 |①-②-|
⑥②①⑤ |③-④-|
⑧④③⑦ |⑤-⑥-|
口口口口 |⑦-⑧-|
92
口②①口 |①-②-|
⑥④③⑤ |③-④-|
⑧口口⑦ |⑤-⑥-|
口口口口 |⑦-⑧-|
93
口口口口 |①-②-|
⑥口口⑤ |③-④-|
⑧②①⑦ |⑤-⑥-|
口④③口 |⑦-⑧-|
94
口②①口 |①-②-|
⑥④③⑤ |③-④-|
⑧口口⑦ |⑤-⑥-|
口口口口 |⑦-⑧-|
95
口口口口 |①-②-|
⑥口口⑤ |③-④-|
⑧②①⑦ |⑤-⑥-|
口④③口 |⑦-⑧-|
96
口口口口 |①-②-|
⑥口口⑤ |③-④-|
⑧②①⑦ |⑤-⑥-|
口④③口 |⑦-⑧-|

不確定度: 0

最終更新:2015年03月24日 20:44