アットウィキロゴ

水月鏡花のコノテーション
日向美ビタースイーツ♪

BASIC

Level: 4
BPM: 185
Notes: 319

1
口口口口 |----|
口口口口 |----|
口口口口 |----|
口口口口 |----|
2
口口口口 |----|
口口口口 |----|
口口口口 |----|
口口口口 |----|
3
口口口口 |①---|
①口口口 |----|
口口口口 |----|
口口口口 |----|
4
口口口口 |①---|
口口口① |----|
口口口口 |----|
口口口口 |----|
5
口口口口 |①---|
口口口口 |----|
①口口口 |----|
口口口口 |----|
6
口口口口 |①---|
口口口口 |----|
口口口① |----|
口口口口 |----|
7
口口口口 |①---|
口①①口 |----|
口口口口 |----|
口口口口 |----|
8
口口口口 |①---|
口口口口 |----|
口①①口 |----|
口口口口 |----|
9
口口口口 |①---|
口口口口 |----|
口口口口 |----|
口①①口 |----|
10
口口口口 |----|
口口口口 |----|
口口口口 |----|
口口口口 |----|
11
口口口口 |①---|
①口口口 |----|
口口口口 |----|
口口口口 |----|
12
口口口口 |①---|
口口口① |----|
口口口口 |----|
口口口口 |----|
13
口口口口 |①---|
口口口口 |----|
①口口口 |----|
口口口口 |----|
14
口口口口 |①---|
口口口口 |----|
口口口① |----|
口口口口 |----|
15
口口口口 |①---|
口①①口 |----|
口口口口 |----|
口口口口 |----|
16
口口口口 |①---|
口口口口 |----|
口①①口 |----|
口口口口 |----|
17
口口口口 |①---|
口口口口 |----|
口口口口 |----|
口①①口 |----|
18
口口口口 |----|
口口口口 |----|
口口口口 |----|
口口口口 |----|
19
①③口② |①---|
①③口② |--②-|
口口口口 |----|
口口口口 |③---|
20
口口①口 |--①-|
口口①口 |----|
口口口口 |----|
口口口口 |----|
21
口口口口 |①---|
口口口口 |--②-|
①③口② |----|
①③口② |③---|
22
口口口口 |--①-|
口口口口 |----|
口口①口 |----|
口口①口 |----|
23
②口③① |①---|
②口③① |--②-|
口口口口 |----|
口口口口 |③---|
24
口①口口 |--①-|
口①口口 |----|
口口口口 |----|
口口口口 |----|
25
口口口口 |①---|
口口口口 |--②-|
②口③① |----|
②口③① |③---|
26
口口口口 |--①-|
口口口口 |----|
口①口口 |----|
口①口口 |----|
27
口口口口 |①---|
口①口口 |----|
口口口口 |----|
口口口口 |----|
28
①口口① |①---|
口口口口 |----|
口口口口 |----|
口口口口 |----|
29
口口口口 |①---|
口口口口 |----|
口①口口 |----|
口口口口 |----|
30
口口口口 |①---|
①口口① |----|
口口口口 |----|
口口口口 |----|
31
口口口口 |①---|
口口口口 |----|
口口口口 |----|
口①口口 |----|
32
口口口口 |①---|
口口口口 |----|
①口口① |----|
口口口口 |----|
33
口口口口 |①---|
口②①口 |----|
口口口口 |②---|
口口口口 |----|
34
口口口口 |①---|
②口口② |----|
口口①口 |②---|
口口口口 |----|
35
口口④口 |①---|
口口③口 |②---|
口口②口 |③---|
口①①口 |④---|
36
①口口口 |①---|
口口口② |②---|
③口口口 |③---|
口口口④ |④---|
37
口④口口 |①---|
口③口口 |②---|
口②口口 |③---|
口①①口 |④---|
38
口口口① |①---|
②口口口 |②---|
口口口③ |③---|
④口口口 |④---|
39
口口口口 |①---|
口口口口 |②---|
口③④口 |③---|
口①②口 |④---|
40
口③④口 |①---|
①口口② |②---|
口口口口 |③---|
口口口口 |④---|
41
口口口口 |①---|
口③④口 |②---|
口①②口 |③---|
口口口口 |④---|
42
口口口口 |①---|
口③④口 |②---|
口口②口 |③---|
口①口口 |④---|
43
①口②口 |①---|
③口④口 |②---|
口口口口 |③---|
口口口口 |④---|
44
口口口口 |①---|
口口口口 |②---|
口①口② |③---|
口③口④ |④---|
45
口口口口 |①---|
口口口口 |②---|
③口④口 |③---|
①口②口 |④---|
46
口①口口 |①---|
口②口口 |②---|
口③口口 |③---|
口④口口 |④---|
47
口口口口 |①---|
口③口④ |②---|
①口②口 |③---|
口口口口 |④---|
48
口口口口 |①---|
口④口口 |②---|
①③②口 |③---|
口口口口 |④---|
49
口①②口 |①---|
③口④口 |②---|
口口口口 |③---|
口口口口 |④---|
50
口口口口 |①---|
口口口口 |②---|
口①口② |③---|
③口④口 |④---|
51
③口口③ |①---|
口②②口 |--②-|
口①①口 |----|
口口口口 |③---|
52
口口口口 |----|
口口口口 |----|
口口口口 |----|
口口口口 |----|
53
口口口口 |①---|
口①①口 |--②-|
口②②口 |----|
③口口③ |③---|
54
口口口口 |----|
口口口口 |----|
口口口口 |----|
口口口口 |----|
55
③口口③ |①---|
口②②口 |--②-|
口①①口 |----|
口口口口 |③---|
56
口口口口 |----|
口口口口 |----|
口口②口 |①---|
口口①口 |②---|
57
口口口③ |①---|
口口口④ |②---|
口②口口 |③---|
口①口口 |④---|
58
①口口口 |①---|
②口口口 |②---|
口④③口 |③---|
口口口口 |④---|
59
①①①① |①---|
口②②口 |----|
口④③口 |②---|
口口口口 |③-④-|
60
口口③口 |----|
口口口② |①---|
口口口① |②---|
口口口口 |③---|
61
口①口口 |①---|
②口口口 |②---|
③口口口 |③---|
口④口口 |④---|
62
口③③口 |①---|
口②②口 |--②-|
口①①口 |----|
口口口口 |③---|
63
①口口① |①---|
口②②口 |----|
口④③口 |②---|
口口口口 |③-④-|
64
口口口口 |----|
口口口① |①---|
口口口② |②---|
口口③口 |③---|
65
口④口口 |①---|
③口口口 |②---|
②口口口 |③---|
口①口口 |④---|
66
口口①口 |①---|
口口口② |②---|
口口口③ |③---|
④口口口 |④---|
67
口口口口 |①---|
①口③口 |②---|
口口口口 |③---|
口④②口 |④---|
68
口口口口 |①---|
口①口③ |②---|
口④口口 |③---|
口口口② |④---|
69
口口①口 |①---|
口②口口 |②---|
口口③口 |③---|
口④口口 |④---|
70
口口口口 |①---|
③口口③ |②---|
②④口② |③---|
①口口① |④---|
71
口①口③ |①---|
口口口口 |②---|
④口口② |③---|
口口口口 |④---|
72
①口③口 |①---|
口④口口 |②---|
口口②口 |③---|
口口口口 |④---|
73
口④口口 |①---|
口口③口 |②---|
口②口口 |③---|
口口①口 |④---|
74
①口口① |①---|
②口口② |②---|
口③④口 |③---|
口口口口 |④---|
75
口口口口 |①---|
③③口口 |--②-|
②②口口 |----|
①①口口 |③---|
76
①①口口 |--①-|
口口口口 |----|
③口口② |②---|
口口口口 |③---|
77
口口①① |①---|
口口②② |--②-|
口口③③ |----|
口口口口 |③---|
78
口口口口 |--①-|
②口口③ |----|
口口口口 |②---|
口口①① |③---|
79
口口口口 |①---|
③③口口 |--②-|
②②口口 |----|
①①口口 |③---|
80
①①口口 |--①-|
口口口口 |----|
③口口② |②---|
口口口口 |③---|
81
口口①① |①---|
口口②② |--②-|
口口③③ |----|
口口口口 |③---|
82
口口口口 |--①-|
②口口③ |----|
口口口口 |②---|
口口①① |③---|
83
口口口口 |①---|
③口③口 |--②-|
口②口② |----|
①口①口 |③---|
84
口①口① |--①-|
口口口口 |----|
③口口② |②---|
口口口口 |③---|
85
口①口① |①---|
②口②口 |--②-|
口③口③ |----|
口口口口 |③---|
86
口口口口 |--①-|
②口口③ |----|
口口口口 |②---|
①口①口 |③---|
87
口口口口 |①---|
③口③口 |--②-|
口②口② |----|
①口①口 |③---|
88
口①口① |--①-|
口口口口 |----|
③口口② |②---|
口口口口 |③---|
89
口①口① |①---|
②口②口 |--②-|
口③口③ |----|
口口口口 |③---|
90
口口口口 |--①-|
②口口③ |----|
口口口口 |②---|
①口①口 |③---|
91
口①口口 |①---|
口口口口 |----|
口口口口 |----|
口口口口 |----|
92
口口口口 |----|
口口口口 |----|
口口口口 |----|
口口口口 |----|
93
口口口口 |①---|
口口①口 |----|
口口口口 |----|
口口口口 |----|
94
口口口口 |----|
口口口口 |----|
口口口口 |----|
口口口口 |----|
95
口口口口 |①---|
口口口口 |----|
口①口口 |----|
口口口口 |----|
96
口口口口 |----|
口口口口 |----|
口口口口 |----|
口口口口 |----|
97
口口口口 |①---|
口口口口 |----|
口口口口 |----|
口口①口 |----|

不確定度: 0

最終更新:2015年03月24日 20:44